<?xml version="1.0" standalone="no"?>
<!DOCTYPE svg PUBLIC "-//W3C//DTD SVG 1.1//EN" "http://www.w3.org/Graphics/SVG/1.1/DTD/svg11.dtd" >
<svg xmlns="http://www.w3.org/2000/svg">
<metadata>Generated by IcoMoon</metadata>
<defs>
<font id="icomoon" horiz-adv-x="1024">
<font-face units-per-em="1024" ascent="960" descent="-64" />
<missing-glyph horiz-adv-x="1024" />
<glyph unicode="&#x20;" horiz-adv-x="512" d="" />
<glyph unicode="&#xe900;" glyph-name="account_address" d="M348.16 12.8c0 0 0 0 0 0v0c-5.12 0-5.12 0-10.24 0s-5.12 0-10.24 5.12l-276.48 138.24c-30.72 15.36-51.2 46.080-51.2 81.92v547.84c0 51.2 40.96 87.040 87.040 87.040 10.24 0 25.6-5.12 40.96-10.24l215.040-107.52 291.84 143.36c5.12 0 5.12 5.12 10.24 5.12s5.12 0 10.24 0c0 0 0 0 0 0s0 0 0 0c5.12 0 5.12 0 10.24 0s5.12 0 10.24-5.12l276.48-138.24c30.72-15.36 51.2-46.080 51.2-81.92v-552.96c0-15.36-5.12-25.6-10.24-40.96-20.48-46.080-76.8-61.44-117.76-40.96l-215.040 107.52-291.84-143.36c-5.12 0-5.12-5.12-10.24-5.12-5.12 10.24-10.24 10.24-10.24 10.24zM384 693.76v-578.56l230.4 112.64v578.56l-230.4-112.64zM92.16 801.28c-5.12 0-5.12 0-10.24-5.12 0 0-5.12-5.12-5.12-10.24v-552.96c0-5.12 5.12-10.24 5.12-10.24l225.28-107.52v578.56l-209.92 107.52c-5.12 0-5.12 0-5.12 0v0zM691.2 227.84l209.92-107.52c5.12-5.12 15.36 0 15.36 5.12 0 0 0 5.12 0 5.12v552.96c0 5.12-5.12 10.24-5.12 10.24l-220.16 112.64v-578.56z" />
<glyph unicode="&#xe901;" glyph-name="account_dashboard" d="M829.703-64h-630.154c-52.513 0-94.523 42.010-94.523 94.523v425.354l-36.759-36.759c-15.754-15.754-42.010-15.754-57.764 0s-15.754 42.010 0 57.764l472.615 472.615c15.754 15.754 42.010 15.754 57.764 0l472.615-472.615c15.754-15.754 15.754-42.010 0-57.764s-42.010-15.754-57.764 0l-36.759 36.759v-430.605c0-47.262-42.010-89.272-89.272-89.272zM672.164 14.769h157.538c5.251 0 10.503 5.251 10.503 10.503v509.374l-325.579 330.831-330.831-330.831v-509.374c0-5.251 5.251-10.503 10.503-10.503h157.538c10.503 0 15.754 5.251 15.754 10.503v210.051c0 52.513 42.010 94.523 94.523 94.523h105.026c52.513 0 94.523-42.010 94.523-94.523v-210.051c-5.251-5.251 0-10.503 10.503-10.503zM446.359 14.769h131.282c0 5.251 0 10.503 0 10.503v210.051c0 5.251-5.251 10.503-15.754 10.503h-105.026c-5.251 0-10.503-5.251-10.503-10.503v-210.051c0 0 0-5.251 0-10.503z" />
<glyph unicode="&#xe902;" glyph-name="account_downloads" d="M807.497-64h-585.143c-122.88 0-222.354 99.474-222.354 222.354v58.514c0 23.406 17.554 40.96 46.811 40.96s46.811-17.554 46.811-46.811v-58.514c0-70.217 58.514-128.731 128.731-128.731h585.143c70.217 0 128.731 58.514 128.731 128.731v58.514c0 23.406 17.554 46.811 46.811 46.811s46.811-17.554 46.811-46.811v-58.514c-5.851-117.029-105.326-216.503-222.354-216.503zM514.926 170.057c-5.851 0-5.851 0 0 0-5.851 0-5.851 0 0 0-5.851 0-5.851 0 0 0v0c-5.851 0-11.703 0-17.554 5.851-5.851 0-11.703 5.851-11.703 11.703v0c0 0 0 0 0 0s0 0 0 0v0 0l-234.057 234.057c-23.406 11.703-23.406 40.96-5.851 58.514s46.811 17.554 64.366 0l157.989-157.989v590.994c0 29.257 17.554 46.811 46.811 46.811s46.811-17.554 46.811-46.811v-596.846l157.989 157.989c17.554 17.554 46.811 17.554 64.366 0s17.554-46.811 0-64.366l-234.057-234.057c0 0 0 0 0 0v0c0 0 0 0 0 0v0c0 0 0 0 0 0s0 0 0 0 0 0 0 0v0 0c0 0 0 0 0 0s0 0 0 0v0c0 0 0 0 0 0v0c0 0 0 0 0 0s0 0 0 0 0 0 0 0 0 0 0 0v0c0 0 0 0 0 0s0 0 0 0 0 0 0 0 0 0 0 0v0c0 0 0 0 0 0s0 0 0 0 0 0 0 0 0 0 0 0 0 0 0 0 0 0 0 0 0 0 0 0 0 0 0 0 0 0 0 0 0 0 0 0 0 0 0 0v0c0 0 0 0 0 0v0c-5.851 0-5.851-5.851-11.703-5.851 0 0 0 0 0 0s0 0 0 0c-11.703 0-17.554 0-23.406 0v0c0 0 0 0 0 0s0 0 0 0 0 0 0 0z" />
<glyph unicode="&#xe903;" glyph-name="account_form_register" d="M860.16 12.8h-716.8c-76.8 0-143.36 61.44-143.36 143.36v460.8c0 76.8 61.44 138.24 143.36 138.24h215.040v10.24c0 81.92 61.44 143.36 143.36 143.36 76.8 0 143.36-61.44 143.36-143.36v-10.24h215.040c76.8 0 143.36-61.44 143.36-143.36v-460.8c-5.12-76.8-66.56-138.24-143.36-138.24zM143.36 678.4c-35.84 0-61.44-30.72-61.44-61.44v-460.8c0-35.84 30.72-61.44 61.44-61.44h716.8c35.84 0 61.44 30.72 61.44 61.44v460.8c0 35.84-30.72 61.44-61.44 61.44h-225.28c-15.36-61.44-71.68-102.4-133.12-102.4-66.56 0-117.76 40.96-133.12 102.4h-225.28zM435.2 714.24c0-30.72 30.72-61.44 66.56-61.44s61.44 30.72 61.44 61.44v51.2c0 35.84-30.72 61.44-66.56 61.44s-61.44-25.6-61.44-61.44v-51.2zM491.52 166.4c-15.36 0-30.72 10.24-35.84 25.6-15.36 46.080-61.44 76.8-107.52 76.8 0 0 0 0 0 0v0 0 0c0 0 0 0 0 0-51.2 0-92.16-30.72-107.52-76.8-5.12-20.48-30.72-30.72-51.2-25.6s-30.72 30.72-25.6 51.2c15.36 40.96 40.96 76.8 76.8 97.28-20.48 25.6-35.84 56.32-35.84 92.16 0 81.92 61.44 143.36 143.36 143.36 76.8 0 143.36-61.44 143.36-143.36 0-35.84-15.36-71.68-35.84-92.16 35.84-20.48 61.44-56.32 76.8-97.28 5.12-20.48-5.12-40.96-25.6-51.2-10.24 0-10.24 0-15.36 0zM343.040 345.6v0 0c35.84 0 66.56 30.72 66.56 61.44s-30.72 66.56-61.44 66.56-66.56-30.72-66.56-66.56 30.72-61.44 61.44-61.44zM757.76 217.6h-102.4c-20.48 0-40.96 15.36-40.96 40.96s15.36 40.96 40.96 40.96h102.4c20.48 0 40.96-15.36 40.96-40.96s-20.48-40.96-40.96-40.96zM808.96 422.4h-153.6c-20.48 0-40.96 15.36-40.96 40.96s15.36 35.84 40.96 35.84h153.6c20.48 0 40.96-15.36 40.96-40.96s-20.48-35.84-40.96-35.84z" />
<glyph unicode="&#xe904;" glyph-name="account_logout" d="M399.36 12.8h-204.8c-107.52 0-194.56 87.040-194.56 194.56v512c0 102.4 87.040 189.44 194.56 189.44h204.8c107.52 0 189.44-87.040 189.44-194.56v-51.2c0-20.48-15.36-40.96-35.84-40.96s-40.96 20.48-40.96 40.96v51.2c0 61.44-51.2 112.64-112.64 112.64h-204.8c-61.44 0-112.64-51.2-112.64-112.64v-512c0-61.44 51.2-112.64 112.64-112.64h204.8c61.44 0 112.64 51.2 112.64 112.64v51.2c0 20.48 15.36 40.96 40.96 40.96s35.84-15.36 35.84-40.96v-51.2c0-102.4-87.040-189.44-189.44-189.44zM757.76 217.6c-10.24 0-20.48 5.12-25.6 10.24-15.36 15.36-15.36 40.96 0 56.32l138.24 138.24h-624.64c-25.6 0-40.96 15.36-40.96 35.84s15.36 40.96 40.96 40.96h624.64l-138.24 138.24c-15.36 15.36-15.36 40.96 0 56.32s40.96 15.36 56.32 0l204.8-204.8c5.12-5.12 5.12-10.24 10.24-10.24 0-5.12 5.12-10.24 5.12-15.36s0-10.24-5.12-15.36c0-5.12-5.12-10.24-10.24-10.24l-204.8-204.8c-15.36-10.24-25.6-15.36-30.72-15.36z" />
<glyph unicode="&#xe905;" glyph-name="add_to_cart" d="M777.19-64c-78.769 0-147.036 63.015-147.036 147.036 0 26.256 5.251 47.262 15.754 63.015h-267.815c10.503-21.005 15.754-42.010 15.754-63.015 0-78.769-63.015-147.036-147.036-147.036-78.769 0-147.036 63.015-147.036 147.036 0 26.256 5.251 52.513 21.005 73.518-10.503 5.251-15.754 10.503-26.256 15.754-36.759 36.759-36.759 94.523 0 131.282l105.026 105.026-73.518 399.097c0 0 0 0 0 0l-15.754 73.518h-68.267c-26.256 0-42.010 15.754-42.010 36.759s15.754 42.010 42.010 42.010h105.026c21.005 0 36.759-15.754 36.759-31.508l15.754-73.518h787.692c15.754 0 26.256-5.251 31.508-21.005 5.251-10.503 5.251-26.256 0-36.759l-210.051-420.103c-5.251-15.754-21.005-21.005-36.759-21.005h-504.123l-110.277-110.277c-5.251-5.251-5.251-5.251-5.251-10.503s0-5.251 5.251-10.503c0 0 5.251 0 10.503 0h609.149c78.769 0 147.036-63.015 147.036-147.036s-68.267-141.785-147.036-141.785zM777.19 146.051c-36.759 0-63.015-31.508-63.015-63.015s31.508-63.015 63.015-63.015 63.015 31.508 63.015 63.015-31.508 63.015-63.015 63.015zM252.062 146.051c-36.759 0-63.015-31.508-63.015-63.015s26.256-68.267 63.015-68.267 63.015 31.508 63.015 63.015-31.508 68.267-63.015 68.267zM283.569 434.872h467.364l168.041 341.333h-703.672l68.267-341.333z" />
<glyph unicode="&#xe906;" glyph-name="add_to_favourite_1" d="M496.64 17.92c-10.24 0-20.48 5.12-25.6 10.24l-394.24 394.24c-102.4 102.4-102.4 276.48 0 378.88v0 0c51.2 51.2 117.76 76.8 189.44 76.8s143.36-20.48 194.56-71.68l40.96-40.96 40.96 40.96c51.2 51.2 117.76 76.8 189.44 76.8s138.24-25.6 189.44-76.8c51.2-51.2 76.8-117.76 76.8-189.44 0-76.8-25.6-143.36-76.8-194.56l-394.24-394.24c-10.24-5.12-20.48-10.24-30.72-10.24zM266.24 806.4c-51.2 0-97.28-20.48-138.24-56.32v0c-76.8-76.8-76.8-194.56 0-271.36l368.64-368.64 368.64 368.64c35.84 35.84 56.32 81.92 56.32 138.24 0 51.2-20.48 97.28-56.32 138.24-71.68 71.68-199.68 71.68-271.36 0l-66.56-66.56c-15.36-15.36-40.96-15.36-56.32 0l-66.56 61.44c-35.84 35.84-87.040 56.32-138.24 56.32 0 0 0 0 0 0zM107.52 775.68v0 0z" />
<glyph unicode="&#xe907;" glyph-name="add_to_favourite_2" d="M107.52 775.68c-92.16-92.16-92.16-235.52 0-327.68 0 0 0 0 0 0v0l394.24-394.24 394.24 394.24c92.16 92.16 92.16 235.52 0 327.68 0 0 0 0 0 0-92.16 92.16-235.52 92.16-327.68 0 0 0 0 0 0 0v0l-71.68-66.56-66.56 66.56c-87.040 92.16-235.52 92.16-322.56 0 0 0 0 0 0 0v0zM496.64 2.56l-419.84 419.84c-102.4 102.4-102.4 261.12-10.24 368.64v0l10.24 10.24c51.2 51.2 117.76 76.8 189.44 76.8s143.36-20.48 194.56-71.68l40.96-40.96 40.96 40.96c51.2 51.2 117.76 76.8 189.44 76.8s138.24-25.6 189.44-76.8c51.2-51.2 76.8-117.76 76.8-189.44s-25.6-143.36-76.8-194.56l-424.96-419.84zM138.24 755.2v0c-81.92-81.92-81.92-199.68-5.12-276.48l368.64-368.64 368.64 368.64c30.72 35.84 51.2 81.92 51.2 138.24s-20.48 97.28-56.32 138.24c-71.68 71.68-199.68 71.68-271.36 0l-97.28-97.28-92.16 92.16c-71.68 71.68-194.56 76.8-266.24 5.12z" />
<glyph unicode="&#xe908;" glyph-name="additional_info" d="M514.626-64c-283.569 0-514.626 231.056-514.626 509.374s231.056 514.626 514.626 514.626c283.569 0 514.626-231.056 514.626-514.626s-236.308-509.374-514.626-509.374zM514.626 881.231c-236.308 0-430.605-194.297-430.605-430.605s189.046-435.856 430.605-435.856c236.308 0 435.856 194.297 435.856 430.605s-199.549 435.856-435.856 435.856zM567.138 198.564h-52.513c-21.005 0-42.010 15.754-42.010 42.010v168.041h-10.503c-26.256 0-42.010 15.754-42.010 36.759s15.754 42.010 42.010 42.010h52.513c21.005 0 42.010-15.754 42.010-42.010v-168.041h10.503c21.005 0 36.759-15.754 36.759-42.010s-15.754-36.759-36.759-36.759zM514.626 618.667c-26.256 0-42.010 15.754-42.010 36.759s15.754 42.010 42.010 42.010v0c21.005 0 42.010-15.754 42.010-42.010s-21.005-36.759-42.010-36.759z" />
<glyph unicode="&#xe909;" glyph-name="archive_description" d="M753.562 13.824h-512c-76.8 0-143.36 61.44-143.36 143.36v481.28c-61.44 15.36-102.4 71.68-102.4 133.12 0 76.8 61.44 143.36 143.36 143.36h716.8c76.8 0 143.36-61.44 143.36-143.36 0-66.56-40.96-117.76-102.4-133.12v-481.28c0-81.92-66.56-143.36-143.36-143.36zM180.122 628.224v-471.040c0-35.84 30.72-61.44 61.44-61.44h512c35.84 0 61.44 30.72 61.44 61.44v471.040h-634.88zM139.162 705.024h716.8c35.84 0 61.44 30.72 61.44 61.44s-30.72 61.44-61.44 61.44h-716.8c-35.84 0-61.44-30.72-61.44-61.44s25.6-61.44 61.44-61.44zM599.962 423.424h-204.8c-20.48 0-40.96 15.36-40.96 40.96s15.36 40.96 40.96 40.96h204.8c20.48 0 40.96-15.36 40.96-40.96s-20.48-40.96-40.96-40.96zM651.162 213.504h-153.6c-20.48 0-40.96 15.36-40.96 40.96s15.36 40.96 40.96 40.96h153.6c20.48 0 40.96-15.36 40.96-40.96s-20.48-40.96-40.96-40.96zM343.962 213.504c-20.48 0-40.96 15.36-40.96 40.96s15.36 40.96 35.84 40.96v0c20.48 0 40.96-15.36 40.96-40.96s-10.24-40.96-35.84-40.96z" />
<glyph unicode="&#xe90a;" glyph-name="archive_products" d="M757.76 12.8h-512c-76.8 0-143.36 61.44-143.36 143.36v476.16c-61.44 15.36-102.4 71.68-102.4 133.12 0 81.92 61.44 143.36 143.36 143.36h716.8c76.8 0 143.36-61.44 143.36-143.36 0-66.56-40.96-117.76-102.4-133.12v-481.28c-5.12-76.8-66.56-138.24-143.36-138.24zM179.2 627.2v-471.040c0-35.84 30.72-61.44 61.44-61.44h512c35.84 0 61.44 30.72 61.44 61.44v471.040h-634.88zM143.36 704h716.8c30.72 0 61.44 30.72 61.44 61.44s-30.72 61.44-61.44 61.44h-716.8c-35.84 0-61.44-30.72-61.44-61.44s25.6-61.44 61.44-61.44zM604.16 422.4h-204.8c-25.6 0-40.96 15.36-40.96 35.84s15.36 40.96 40.96 40.96h204.8c20.48 0 40.96-15.36 40.96-40.96s-20.48-35.84-40.96-35.84z" />
<glyph unicode="&#xe90b;" glyph-name="archive_title" d="M757.76 12.8h-512c-76.8 0-143.36 61.44-143.36 143.36v476.16c-61.44 15.36-102.4 71.68-102.4 133.12 0 81.92 61.44 143.36 143.36 143.36h716.8c76.8 0 143.36-61.44 143.36-143.36 0-66.56-40.96-117.76-102.4-133.12v-481.28c-5.12-76.8-66.56-138.24-143.36-138.24zM179.2 627.2v-471.040c0-35.84 30.72-61.44 61.44-61.44h512c35.84 0 61.44 30.72 61.44 61.44v471.040h-634.88zM143.36 704h716.8c30.72 0 61.44 30.72 61.44 61.44s-30.72 61.44-61.44 61.44h-716.8c-35.84 0-61.44-30.72-61.44-61.44s25.6-61.44 61.44-61.44zM604.16 422.4h-204.8c-25.6 0-40.96 15.36-40.96 35.84s15.36 40.96 40.96 40.96h204.8c20.48 0 40.96-15.36 40.96-40.96s-20.48-35.84-40.96-35.84z" />
<glyph unicode="&#xe90c;" glyph-name="breadcrumb" d="M860.16 64h-102.4c-40.96 0-76.8 15.36-102.4 46.080-25.6-25.6-61.44-46.080-102.4-46.080h-102.4c-40.96 0-76.8 15.36-102.4 46.080-25.6-25.6-61.44-46.080-102.4-46.080h-102.4c-76.8 0-143.36 61.44-143.36 143.36v512c0 76.8 61.44 138.24 143.36 138.24h102.4c40.96 0 76.8-15.36 102.4-46.080 25.6 30.72 61.44 46.080 102.4 46.080h102.4c40.96 0 76.8-15.36 102.4-46.080 25.6 30.72 61.44 46.080 102.4 46.080h102.4c76.8 0 143.36-61.44 143.36-143.36v-512c-5.12-76.8-66.56-138.24-143.36-138.24zM691.2 202.24c0-35.84 30.72-61.44 61.44-61.44h102.4c35.84 0 61.44 30.72 61.44 61.44v512c0 35.84-30.72 61.44-61.44 61.44h-102.4c-35.84 0-61.44-30.72-61.44-61.44v-512zM384 202.24c0-35.84 30.72-61.44 61.44-61.44h102.4c35.84 0 66.56 30.72 66.56 61.44v512c0 35.84-30.72 61.44-66.56 61.44h-102.4c-35.84 0-61.44-30.72-61.44-61.44v-512zM143.36 780.8c-35.84 0-61.44-30.72-61.44-61.44v-512c0-35.84 30.72-61.44 61.44-61.44h102.4c30.72-5.12 61.44 25.6 61.44 56.32v512c0 35.84-30.72 61.44-61.44 61.44h-102.4z" />
<glyph unicode="&#xe90d;" glyph-name="cart_table" d="M860.16 115.2h-716.8c-76.8 0-143.36 61.44-143.36 143.36v409.6c0 76.8 61.44 138.24 143.36 138.24h716.8c76.8 0 143.36-61.44 143.36-143.36v-409.6c-5.12-76.8-66.56-138.24-143.36-138.24zM537.6 192h322.56c35.84 0 61.44 30.72 61.44 61.44v66.56h-384v-128zM76.8 320v-61.44c0-35.84 30.72-61.44 61.44-61.44h322.56v122.88h-384zM537.6 396.8h384v128h-384v-128zM76.8 396.8h384v128h-384v-128zM501.76 601.6h419.84v61.44c0 35.84-30.72 61.44-61.44 61.44h-716.8c-35.84 0-61.44-30.72-61.44-61.44v-61.44h419.84z" />
<glyph unicode="&#xe90e;" glyph-name="checkout_coupon_form" horiz-adv-x="814" d="M672.164-64h-525.128c-78.769 0-147.036 63.015-147.036 147.036v735.179c0 78.769 63.015 141.785 147.036 141.785h294.072c26.256 0 47.262-10.503 63.015-26.256l283.569-283.569c15.754-15.754 26.256-42.010 26.256-63.015v-504.123c0-84.021-63.015-147.036-141.785-147.036zM147.036 881.231c-36.759 0-63.015-31.508-63.015-63.015v-735.179c0-36.759 31.508-63.015 63.015-63.015h525.128c36.759 0 63.015 31.508 63.015 63.015v498.872c0 5.251 0 10.503-5.251 10.503l-283.569 283.569c0 0-5.251 5.251-10.503 5.251h-288.821zM567.138 146.051c-21.005 0-42.010 15.754-42.010 42.010v315.077c0 21.005 15.754 36.759 42.010 36.759s42.010-15.754 42.010-42.010v-315.077c-5.251-21.005-21.005-36.759-42.010-36.759zM409.6 146.051c-21.005 0-42.010 15.754-42.010 42.010v210.051c0 21.005 15.754 36.759 42.010 36.759s42.010-15.754 42.010-42.010v-210.051c-5.251-21.005-21.005-36.759-42.010-36.759zM252.062 146.051c-21.005 0-42.010 15.754-42.010 42.010v105.026c0 21.005 15.754 36.759 42.010 36.759s42.010-15.754 42.010-42.010v-105.026c-5.251-21.005-21.005-36.759-42.010-36.759z" />
<glyph unicode="&#xe90f;" glyph-name="checkout_form_additional" d="M772.043-62.11c-78.769 0-147.036 63.015-147.036 147.036 0 26.256 5.251 47.262 15.754 63.015h-267.815c10.503-21.005 15.754-42.010 15.754-63.015 0-78.769-63.015-147.036-147.036-147.036-78.769 0-147.036 63.015-147.036 147.036 0 26.256 5.251 52.513 21.005 73.518-10.503 5.251-15.754 10.503-26.256 15.754-36.759 36.759-36.759 94.523 0 131.282l105.026 105.026-78.769 399.097-15.754 73.518h-73.518c-21.005 0-42.010 15.754-42.010 42.010s15.754 42.010 42.010 42.010h105.026c21.005 0 36.759-15.754 36.759-31.508l99.774-493.621h467.364l168.041 341.333h-5.251c-21.005 0-42.010 15.754-42.010 42.010s15.754 42.010 42.010 42.010h73.518c15.754 0 26.256-5.251 31.508-21.005 5.251-10.503 5.251-26.256 0-36.759l-210.051-420.103c-5.251-15.754-21.005-21.005-36.759-21.005h-509.374l-110.277-110.277c-5.251-5.251-5.251-15.754 0-21.005 0 0 5.251-5.251 10.503-5.251h609.149c78.769 0 147.036-63.015 147.036-147.036s-47.262-147.036-131.282-147.036zM772.043 147.942c-36.759 0-63.015-31.508-63.015-63.015s31.508-63.015 63.015-63.015 63.015 31.508 63.015 63.015-26.256 63.015-63.015 63.015v0zM246.915 147.942c-36.759 0-63.015-31.508-63.015-63.015s31.508-63.015 63.015-63.015 63.015 31.508 63.015 63.015-26.256 63.015-63.015 63.015zM472.72 778.096h-309.826c-21.005 0-42.010 15.754-42.010 42.010s15.754 42.010 42.010 42.010h309.826c21.005 0 42.010-15.754 42.010-42.010s-21.005-42.010-42.010-42.010zM498.977 515.531c-10.503 0-21.005 5.251-26.256 10.503l-105.026 105.026c-15.754 15.754-15.754 42.010 0 57.764s42.010 15.754 57.764 0l78.769-78.769 241.559 241.559c15.754 15.754 42.010 15.754 57.764 0s15.754-42.010 0-57.764l-267.815-267.815c-15.754-10.503-26.256-10.503-36.759-10.503z" />
<glyph unicode="&#xe910;" glyph-name="checkout_form_billing" d="M777.19-62.11c-78.769 0-147.036 63.015-147.036 147.036 0 26.256 5.251 47.262 15.754 63.015h-267.815c10.503-21.005 15.754-42.010 15.754-63.015 0-78.769-63.015-147.036-147.036-147.036-78.769 0-147.036 63.015-147.036 147.036 0 26.256 5.251 52.513 21.005 73.518-10.503 5.251-15.754 10.503-26.256 15.754-36.759 36.759-36.759 94.523 0 131.282l105.026 105.026-78.769 393.846c0 0 0 0 0 5.251l-15.754 73.518h-68.267c-21.005 0-42.010 15.754-42.010 42.010s15.754 42.010 42.010 42.010h105.026c21.005 0 36.759-15.754 36.759-31.508l21.005-99.774c0 0 0 0 0-5.251l78.769-388.595h467.364l168.041 341.333h-63.015c-21.005 0-42.010 15.754-42.010 42.010s15.754 42.010 42.010 42.010h131.282c15.754 0 26.256-5.251 31.508-21.005 5.251-10.503 5.251-26.256 0-36.759l-210.051-420.103c-5.251-15.754-21.005-21.005-36.759-21.005h-509.374l-110.277-110.277c-5.251-5.251-5.251-5.251-5.251-10.503 0 0 0-5.251 5.251-10.503 0 0 5.251-5.251 10.503-5.251h609.149c78.769 0 147.036-63.015 147.036-147.036s-57.764-147.036-136.533-147.036zM777.19 147.942c-36.759 0-63.015-31.508-63.015-63.015s31.508-63.015 63.015-63.015 63.015 31.508 63.015 63.015-31.508 63.015-63.015 63.015zM246.81 147.942c-36.759 0-63.015-31.508-63.015-63.015s31.508-63.015 63.015-63.015 63.015 31.508 63.015 63.015-26.256 63.015-63.015 63.015zM304.574 778.096h-136.533c-21.005 0-42.010 15.754-42.010 42.010s15.754 42.010 42.010 42.010h136.533c21.005 0 42.010-15.754 42.010-42.010s-21.005-42.010-42.010-42.010zM567.138 526.034c-21.005 0-42.010 15.754-42.010 42.010s15.754 42.010 42.010 42.010c47.262 0 78.769 26.256 78.769 42.010s-31.508 42.010-78.769 42.010c-89.272 0-157.538 52.513-157.538 120.779s68.267 120.779 157.538 120.779c21.005 0 36.759-15.754 36.759-42.010s-15.754-42.010-36.759-42.010c-47.262 0-78.769-26.256-78.769-42.010s31.508-42.010 78.769-42.010c89.272 0 157.538-52.513 157.538-120.779s-68.267-120.779-157.538-120.779zM672.164 804.352c-10.503 0-21.005 5.251-26.256 10.503-21.005 21.005-47.262 31.508-73.518 26.256-21.005 0-42.010 15.754-42.010 36.759s15.754 42.010 36.759 42.010c52.513 0 99.774-15.754 131.282-52.513 15.754-15.754 15.754-42.010 0-57.764-5.251-5.251-15.754-5.251-26.256-5.251zM567.138 841.111c-21.005 0-42.010 15.754-42.010 42.010v42.010c0 21.005 15.754 42.010 42.010 42.010s36.759-15.754 36.759-42.010v-42.010c5.251-26.256-15.754-42.010-36.759-42.010zM567.138 526.034c-21.005 0-42.010 15.754-42.010 42.010v315.077c0 21.005 15.754 42.010 42.010 42.010s36.759-15.754 36.759-42.010v-315.077c5.251-26.256-15.754-42.010-36.759-42.010zM567.138 484.024c-21.005 0-42.010 15.754-42.010 42.010v42.010c0 21.005 15.754 42.010 42.010 42.010s36.759-15.754 36.759-42.010v-42.010c5.251-26.256-15.754-42.010-36.759-42.010zM561.887 526.034c-47.262 0-89.272 21.005-126.031 52.513-15.754 15.754-15.754 42.010 0 57.764s42.010 15.754 57.764 0c21.005-21.005 47.262-31.508 73.518-26.256 21.005 0 42.010-15.754 42.010-36.759s-15.754-42.010-36.759-42.010c-5.251-5.251-5.251-5.251-10.503-5.251z" />
<glyph unicode="&#xe911;" glyph-name="checkout_form_login" d="M552.96 12.8h-358.4c-107.52 0-194.56 87.040-194.56 194.56v512c0 102.4 87.040 189.44 194.56 189.44h358.4c107.52 0 194.56-87.040 194.56-194.56v-51.2c0-20.48-15.36-40.96-40.96-40.96s-40.96 20.48-40.96 40.96v51.2c0 61.44-51.2 112.64-117.76 112.64h-358.4c-61.44 0-112.64-51.2-112.64-112.64v-512c0-61.44 51.2-112.64 112.64-112.64h358.4c61.44 0 117.76 51.2 117.76 112.64v51.2c0 20.48 15.36 40.96 40.96 40.96s40.96-15.36 40.96-40.96v-51.2c-5.12-102.4-92.16-189.44-194.56-189.44zM450.56 217.6c-10.24 0-20.48 5.12-25.6 10.24l-204.8 204.8c-10.24 5.12-10.24 10.24-10.24 15.36-5.12 5.12-5.12 5.12-5.12 10.24s0 10.24 5.12 15.36c0 5.12 5.12 10.24 10.24 10.24l204.8 204.8c15.36 15.36 40.96 15.36 56.32 0s15.36-40.96 0-56.32l-143.36-133.12h624.64c20.48 0 40.96-15.36 40.96-40.96s-15.36-40.96-40.96-40.96h-624.64l138.24-138.24c15.36-15.36 15.36-40.96 0-56.32-10.24 0-20.48-5.12-25.6-5.12z" />
<glyph unicode="&#xe912;" glyph-name="checkout_form_shipping" d="M757.76 64c-66.56 0-117.76 40.96-133.12 102.4h-20.48c-20.48 0-35.84 5.12-51.2 15.36-15.36-10.24-30.72-15.36-51.2-15.36h-122.88c-15.36-61.44-71.68-102.4-133.12-102.4s-117.76 40.96-133.12 102.4h-20.48c-51.2 0-92.16 40.96-92.16 92.16v512c0 46.080 40.96 87.040 92.16 87.040h409.6c51.2 0 87.040-40.96 87.040-92.16v-10.24c5.12 0 10.24 0 15.36 0h133.12c25.6 0 46.080-10.24 61.44-25.6l174.080-174.080c15.36-15.36 25.6-40.96 25.6-61.44v-235.52c0-51.2-40.96-92.16-92.16-92.16h-20.48c-10.24-61.44-66.56-102.4-128-102.4zM691.2 202.24c0-35.84 30.72-61.44 61.44-61.44s61.44 30.72 61.44 61.44-30.72 61.44-61.44 61.44-61.44-25.6-61.44-61.44zM179.2 202.24c0-35.84 30.72-61.44 61.44-61.44s66.56 30.72 66.56 61.44-30.72 61.44-61.44 61.44-66.56-25.6-66.56-61.44zM890.88 243.2h20.48c5.12 0 10.24 5.12 10.24 10.24v235.52c0 5.12 0 10.24-5.12 10.24l-174.080 174.080c0 0-5.12 5.12-10.24 5.12h-133.12c-5.12 0-15.36-5.12-15.36-10.24v-409.6c0-5.12 5.12-10.24 15.36-10.24h20.48c15.36 61.44 71.68 102.4 133.12 102.4s122.88-46.080 138.24-107.52zM378.88 243.2h122.88c5.12 0 10.24 5.12 10.24 10.24v512c0 5.12-5.12 10.24-10.24 10.24h-409.6c-5.12 0-10.24-5.12-10.24-10.24v-512c0-5.12 5.12-10.24 10.24-10.24h20.48c15.36 61.44 71.68 102.4 133.12 102.4s117.76-40.96 133.12-102.4z" />
<glyph unicode="&#xe913;" glyph-name="checkout_payment" d="M860.16 64h-512c-76.8 0-143.36 61.44-143.36 143.36v61.44h-61.44c-81.92 0-143.36 61.44-143.36 138.24v307.2c0 81.92 61.44 143.36 143.36 143.36h512c76.8 0 143.36-61.44 143.36-143.36v-61.44h61.44c76.8 0 143.36-61.44 143.36-143.36v-307.2c-5.12-76.8-66.56-138.24-143.36-138.24zM281.6 304.64v-102.4c0-35.84 30.72-61.44 61.44-61.44h512c35.84 0 61.44 30.72 61.44 61.44v307.2c0 35.84-30.72 61.44-61.44 61.44h-512c-35.84 0-61.44-30.72-61.44-61.44v-204.8zM143.36 780.8c-35.84 0-61.44-30.72-61.44-61.44v-307.2c0-35.84 30.72-61.44 61.44-61.44h61.44v158.72c0 81.92 61.44 143.36 143.36 143.36h368.64v61.44c0 35.84-30.72 61.44-61.44 61.44h-512zM604.16 217.6c-76.8 0-143.36 61.44-143.36 143.36s61.44 138.24 143.36 138.24 143.36-61.44 143.36-143.36-66.56-138.24-143.36-138.24zM604.16 422.4c-35.84 0-66.56-30.72-66.56-61.44s30.72-61.44 66.56-61.44 61.44 25.6 61.44 56.32-30.72 66.56-61.44 66.56z" />
<glyph unicode="&#xe914;" glyph-name="checkout_review_order" d="M754.33 62.054c-66.56 0-117.76 40.96-133.12 102.4h-20.48c-20.48 0-35.84 5.12-51.2 15.36-15.36-10.24-30.72-15.36-51.2-15.36h-122.88c-15.36-61.44-71.68-102.4-133.12-102.4s-117.76 40.96-133.12 102.4h-20.48c-51.2 0-92.16 40.96-92.16 92.16 0 20.48 15.36 40.96 40.96 40.96s40.96-15.36 40.96-40.96c0-5.12 5.12-10.24 10.24-10.24h20.48c15.36 61.44 71.68 102.4 133.12 102.4s117.76-40.96 133.12-102.4h122.88c5.12 0 10.24 5.12 10.24 10.24v512c0 5.12-5.12 10.24-10.24 10.24-20.48 0-40.96 15.36-40.96 40.96s15.36 40.96 40.96 40.96c51.2 0 87.040-40.96 87.040-92.16v-15.36c5.12 0 10.24 0 15.36 0h133.12c25.6 0 46.080-10.24 61.44-25.6l174.080-174.080c15.36-15.36 25.6-40.96 25.6-61.44v-235.52c0-51.2-40.96-92.16-92.16-92.16h-20.48c-10.24-56.32-61.44-102.4-128-102.4zM692.89 205.414c0-35.84 30.72-61.44 61.44-61.44s61.44 30.72 61.44 61.44-30.72 61.44-61.44 61.44-61.44-25.6-61.44-61.44zM180.89 205.414c0-35.84 30.72-61.44 61.44-61.44s61.44 30.72 61.44 61.44-30.72 61.44-61.44 61.44-61.44-25.6-61.44-61.44zM892.57 241.254h20.48c5.12 0 10.24 5.12 10.24 10.24v235.52c0 5.12 0 5.12-5.12 10.24l-174.080 174.080c0 0-5.12 5.12-10.24 5.12h-133.12c-5.12 0-15.36-5.12-15.36-10.24v-409.6c0-5.12 5.12-10.24 15.36-10.24h20.48c15.36 61.44 71.68 102.4 133.12 102.4s117.76-46.080 138.24-107.52zM37.53 215.654c-20.48 0-40.96 15.36-40.96 40.96v92.16c0 20.48 15.36 40.96 40.96 40.96s40.96-15.36 40.96-40.96v-92.16c0-20.48-20.48-40.96-40.96-40.96zM493.21 778.854h-92.16c-20.48 0-40.96 15.36-40.96 40.96s15.36 40.96 40.96 40.96h92.16c20.48 0 40.96-15.36 40.96-40.96s-20.48-40.96-40.96-40.96zM119.45 425.574c-20.48 0-35.84 10.24-46.080 25.6s-15.36 35.84-10.24 51.2l25.6 81.92-66.56 51.2c-25.6 20.48-30.72 56.32-10.24 81.92 10.24 15.36 25.6 20.48 46.080 25.6h87.040l25.6 81.92c0 0 0 5.12 5.12 5.12 5.12 10.24 15.36 20.48 25.6 25.6 15.36 5.12 30.72 10.24 46.080 5.12s30.72-20.48 35.84-35.84l25.6-81.92h81.92c30.72 0 56.32-25.6 56.32-61.44 0-20.48-10.24-35.84-25.6-46.080l-66.56-51.2 25.6-81.92c10.24-30.72-5.12-61.44-35.84-71.68-20.48-5.12-35.84-5.12-51.2 10.24l-66.56 51.2-66.56-51.2c-15.36-10.24-25.6-15.36-40.96-15.36zM308.89 476.774c0 0 0 0 0 0v0zM139.93 476.774v0c0 0 0 0 0 0zM109.21 497.254c0 0 0 0 0 0v0zM339.61 497.254v0c0 0 0 0 0 0zM221.85 568.934c10.24 0 25.6-5.12 35.84-10.24l30.72-25.6-10.24 40.96c-10.24 25.6 0 51.2 20.48 66.56l30.72 25.6h-40.96c0 0 0 0 0 0-25.6 0-46.080 15.36-56.32 40.96l-10.24 40.96-10.24-40.96c-10.24-25.6-30.72-40.96-56.32-40.96h-40.96l30.72-25.6c20.48-15.36 30.72-40.96 20.48-66.56l-10.24-40.96 30.72 25.6c15.36 5.12 25.6 10.24 35.84 10.24zM293.53 737.894c0 0 0 0 0 0v0 0zM206.49 804.454v0 0z" />
<glyph unicode="&#xe915;" glyph-name="ck_shipping_methods" d="M755.763 61.44c-66.56 0-117.76 40.96-133.12 102.4h-20.48c-20.48 0-35.84 5.12-51.2 15.36-15.36-10.24-30.72-15.36-51.2-15.36h-122.88c-15.36-61.44-71.68-102.4-133.12-102.4s-117.76 40.96-133.12 102.4h-20.48c-51.2 0-92.16 40.96-92.16 92.16 0 20.48 15.36 40.96 40.96 40.96s40.96-15.36 40.96-40.96c0-5.12 5.12-10.24 10.24-10.24h20.48c15.36 61.44 71.68 102.4 133.12 102.4s117.76-40.96 133.12-102.4h122.88c5.12 0 10.24 5.12 10.24 10.24v512c0 5.12-5.12 10.24-10.24 10.24-20.48 0-40.96 15.36-40.96 40.96s15.36 40.96 40.96 40.96c51.2 0 87.040-40.96 87.040-92.16v-15.36c5.12 0 10.24 0 15.36 0h133.12c25.6 0 46.080-10.24 61.44-25.6l174.080-174.080c15.36-15.36 25.6-40.96 25.6-61.44v-235.52c0-51.2-40.96-92.16-92.16-92.16h-20.48c-10.24-56.32-66.56-102.4-128-102.4zM689.203 204.8c0-35.84 30.72-61.44 61.44-61.44s61.44 30.72 61.44 61.44-30.72 61.44-61.44 61.44-61.44-25.6-61.44-61.44zM177.203 204.8c0-35.84 30.72-61.44 61.44-61.44s61.44 30.72 61.44 61.44-30.72 61.44-61.44 61.44-61.44-25.6-61.44-61.44zM888.883 245.76h20.48c5.12 0 10.24 5.12 10.24 10.24v235.52c0 5.12 0 5.12-5.12 10.24l-174.080 174.080c0 0-5.12 5.12-10.24 5.12h-133.12c-5.12 0-15.36-5.12-15.36-10.24v-409.6c0-5.12 5.12-10.24 15.36-10.24h20.48c15.36 61.44 71.68 102.4 133.12 102.4s122.88-51.2 138.24-107.52zM38.963 215.040c-20.48 0-40.96 15.36-40.96 40.96v92.16c0 20.48 15.36 40.96 40.96 40.96s40.96-15.36 40.96-40.96v-92.16c-5.12-20.48-20.48-40.96-40.96-40.96zM494.643 778.24h-322.56c-20.48 0-40.96 15.36-40.96 40.96s15.36 40.96 40.96 40.96h322.56c20.48 0 40.96-15.36 40.96-40.96s-20.48-40.96-40.96-40.96zM141.363 440.32c-10.24 0-20.48 5.12-25.6 10.24l-102.4 102.4c-15.36 15.36-15.36 40.96 0 56.32s40.96 15.36 56.32 0l76.8-76.8 179.2 179.2c15.36 15.36 40.96 15.36 56.32 0s15.36-40.96 0-56.32l-204.8-204.8c-15.36-5.12-25.6-10.24-35.84-10.24z" />
<glyph unicode="&#xe916;" glyph-name="cross_sells" d="M757.76 12.8c-5.12 0-5.12 0 0 0v0c-5.12 0-5.12 0 0 0v0c-5.12 0-5.12 0 0 0-5.12 0-10.24 0-15.36 5.12-5.12 0-10.24 5.12-10.24 10.24v0c0 0 0 0 0 0s0 0 0 0 0 0 0 0v0l-204.8 204.8c-15.36 15.36-15.36 40.96 0 56.32s40.96 15.36 56.32 0l138.24-138.24v512c-5.12 25.6 10.24 40.96 35.84 40.96s40.96-15.36 40.96-40.96v-522.24l138.24 138.24c15.36 15.36 40.96 15.36 56.32 0s15.36-40.96 0-56.32l-204.8-204.8c0 0 0 0 0 0s0 0 0 0v0c0 0 0 0 0 0v0c0 0 0 0-5.12 0v0c0 0 0 0 0 0s0 0 0 0v0c0 0 0 0 0 0s0 0 0 0v0c0 0 0 0 0 0v0c0 0 0 0 0 0v0c-5.12 0-5.12-5.12-10.24-5.12s-10.24 0-15.36 0c0 0 0 0 0 0v0c0 0 0 0 0 0v0c0 0 0 0 0 0zM501.76 422.4h-460.8c-25.6 0-40.96 15.36-40.96 35.84s15.36 40.96 40.96 40.96h460.8c20.48 0 40.96-15.36 40.96-40.96s-20.48-35.84-40.96-35.84zM501.76 627.2h-460.8c-25.6 0-40.96 15.36-40.96 35.84s15.36 40.96 40.96 40.96h460.8c20.48 0 40.96-15.36 40.96-40.96s-20.48-35.84-40.96-35.84zM706.56 832h-665.6c-25.6 0-40.96 15.36-40.96 35.84s15.36 40.96 40.96 40.96h665.6c20.48 0 40.96-15.36 40.96-40.96s-20.48-35.84-40.96-35.84z" />
<glyph unicode="&#xe917;" glyph-name="empty_cart_message" d="M774.091-62.11c-78.769 0-147.036 63.015-147.036 147.036 0 26.256 5.251 47.262 15.754 63.015h-267.815c10.503-21.005 15.754-42.010 15.754-63.015 0-78.769-63.015-147.036-147.036-147.036-78.769 0-147.036 63.015-147.036 147.036 0 26.256 5.251 52.513 21.005 73.518-10.503 5.251-15.754 10.503-26.256 15.754-36.759 36.759-36.759 94.523 0 131.282l105.026 105.026-78.769 399.097-15.754 73.518h-73.518c-21.005 0-42.010 15.754-42.010 42.010s15.754 42.010 42.010 42.010h105.026c21.005 0 36.759-15.754 36.759-31.508l99.774-493.621h467.364l168.041 341.333h-5.251c-21.005 0-42.010 15.754-42.010 42.010s15.754 42.010 42.010 42.010h73.518c15.754 0 26.256-5.251 31.508-21.005 5.251-10.503 5.251-26.256 0-36.759l-210.051-420.103c-5.251-15.754-21.005-21.005-36.759-21.005h-493.621l-110.277-110.277c-5.251-5.251-5.251-15.754 0-21.005 0 0 5.251-5.251 10.503-5.251h609.149c78.769 0 147.036-63.015 147.036-147.036s-68.267-147.036-147.036-147.036zM774.091 147.942c-36.759 0-63.015-31.508-63.015-63.015s31.508-63.015 63.015-63.015 63.015 31.508 63.015 63.015-26.256 63.015-63.015 63.015v0zM248.963 147.942c-36.759 0-63.015-31.508-63.015-63.015s31.508-63.015 63.015-63.015 63.015 31.508 63.015 63.015-26.256 63.015-63.015 63.015zM264.717 778.096h-99.774c-21.005 0-42.010 15.754-42.010 42.010s15.754 42.010 42.010 42.010h99.774c21.005 0 42.010-15.754 42.010-42.010s-21.005-42.010-42.010-42.010zM921.127 778.096h-120.779c-21.005 0-42.010 15.754-42.010 42.010s15.754 42.010 42.010 42.010h120.779c21.005 0 42.010-15.754 42.010-42.010s-21.005-42.010-42.010-42.010zM585.045 520.783h-52.513c-21.005 0-42.010 15.754-42.010 42.010v168.041h-10.503c-21.005 0-42.010 15.754-42.010 42.010s15.754 42.010 42.010 42.010h52.513c21.005 0 42.010-15.754 42.010-42.010v-168.041h10.503c21.005 0 36.759-15.754 36.759-42.010s-15.754-42.010-36.759-42.010zM532.533 883.121c-21.005 0-42.010 15.754-42.010 42.010s15.754 42.010 36.759 42.010v0c21.005 0 42.010-15.754 42.010-42.010s-15.754-42.010-36.759-42.010z" />
<glyph unicode="&#xe918;" glyph-name="extra_endpoint_ac" horiz-adv-x="814" d="M672.164-64h-525.128c-78.769 0-147.036 63.015-147.036 147.036v735.179c0 78.769 63.015 141.785 147.036 141.785h294.072c26.256 0 47.262-10.503 63.015-26.256l283.569-283.569c15.754-15.754 26.256-42.010 26.256-63.015v-504.123c0-84.021-63.015-147.036-141.785-147.036zM147.036 881.231c-36.759 0-63.015-31.508-63.015-63.015v-735.179c0-36.759 31.508-63.015 63.015-63.015h525.128c36.759 0 63.015 31.508 63.015 63.015v498.872c0 5.251 0 10.503-5.251 10.503l-283.569 283.569c0 0-5.251 5.251-10.503 5.251h-288.821zM567.138 198.564h-315.077c-21.005 0-42.010 15.754-42.010 42.010s15.754 36.759 42.010 36.759h315.077c21.005 0 42.010-15.754 42.010-42.010s-21.005-36.759-42.010-36.759zM567.138 408.615h-315.077c-26.256 0-42.010 15.754-42.010 36.759s15.754 42.010 42.010 42.010h315.077c21.005 0 42.010-15.754 42.010-42.010s-21.005-36.759-42.010-36.759z" />
<glyph unicode="&#xe919;" glyph-name="orders_ac" horiz-adv-x="814" d="M672.164-64h-525.128c-78.769 0-147.036 63.015-147.036 147.036v735.179c0 78.769 63.015 141.785 147.036 141.785h525.128c78.769 0 147.036-63.015 147.036-147.036v-735.179c-5.251-78.769-68.267-141.785-147.036-141.785zM147.036 881.231c-36.759 0-63.015-31.508-63.015-63.015v-735.179c0-36.759 31.508-63.015 63.015-63.015h525.128c36.759 0 63.015 31.508 63.015 63.015v735.179c0 36.759-31.508 63.015-63.015 63.015h-525.128zM567.138 146.051c-21.005 0-42.010 15.754-42.010 42.010v157.538c0 21.005 15.754 42.010 42.010 42.010s42.010-15.754 42.010-42.010v-157.538c-5.251-26.256-21.005-42.010-42.010-42.010zM409.6 146.051c-21.005 0-42.010 15.754-42.010 42.010s15.754 36.759 42.010 36.759v0c21.005 0 42.010-15.754 42.010-42.010s-21.005-36.759-42.010-36.759zM252.062 146.051c-21.005 0-42.010 15.754-42.010 42.010s15.754 36.759 42.010 36.759v0c21.005 0 42.010-15.754 42.010-42.010s-21.005-36.759-42.010-36.759zM409.6 303.59c-21.005 0-42.010 15.754-42.010 42.010s15.754 36.759 42.010 36.759v0c21.005 0 42.010-15.754 42.010-42.010s-21.005-36.759-42.010-36.759zM252.062 303.59c-21.005 0-42.010 15.754-42.010 42.010s15.754 36.759 42.010 36.759v0c21.005 0 42.010-15.754 42.010-42.010s-21.005-36.759-42.010-36.759zM567.138 461.128c-21.005 0-42.010 15.754-42.010 42.010s15.754 36.759 42.010 36.759v0c21.005 0 42.010-15.754 42.010-42.010s-21.005-36.759-42.010-36.759zM409.6 461.128c-26.256 0-42.010 15.754-42.010 36.759s15.754 42.010 42.010 42.010v0c21.005 0 42.010-15.754 42.010-42.010s-21.005-36.759-42.010-36.759zM252.062 461.128c-26.256 0-42.010 15.754-42.010 36.759s15.754 42.010 42.010 42.010v0c21.005 0 42.010-15.754 42.010-42.010s-21.005-36.759-42.010-36.759zM567.138 671.179h-315.077c-26.256 0-42.010 15.754-42.010 36.759s15.754 42.010 42.010 42.010h315.077c21.005 0 42.010-15.754 42.010-42.010s-21.005-36.759-42.010-36.759z" />
<glyph unicode="&#xe91a;" glyph-name="product_categories" d="M882.215-64h-735.179c-78.769 0-147.036 63.015-147.036 147.036v315.077c0 68.267 42.010 120.779 105.026 136.533v68.267c0 68.267 42.010 120.779 105.026 136.533v73.518c0 84.021 63.015 147.036 147.036 147.036h315.077c78.769 0 147.036-63.015 147.036-147.036v-73.518c63.015-15.754 105.026-73.518 105.026-136.533v-73.518c63.015-15.754 105.026-73.518 105.026-136.533v-315.077c-5.251-78.769-68.267-141.785-147.036-141.785zM147.036 461.128c-36.759 0-63.015-31.508-63.015-63.015v-315.077c0-36.759 31.508-63.015 63.015-63.015h735.179c36.759 0 63.015 31.508 63.015 63.015v315.077c0 36.759-31.508 63.015-63.015 63.015h-735.179zM183.795 539.897h656.41v63.015c0 36.759-31.508 63.015-63.015 63.015h-525.128c-36.759 0-63.015-31.508-63.015-63.015v-63.015zM288.821 749.949h446.359v63.015c0 36.759-31.508 63.015-63.015 63.015h-315.077c-36.759 0-63.015-31.508-63.015-63.015v-63.015z" />
<glyph unicode="&#xe91b;" glyph-name="product_compare_1" d="M722.489 533.333c-22.756 0-39.822 17.067-39.822 45.511 0 11.378 5.689 22.756 11.378 28.444l142.222 142.222-142.222 142.222c-17.067 17.067-17.067 45.511 0 62.578s45.511 17.067 62.578 0c0 0 0 0 0 0l170.667-170.667c17.067-17.067 17.067-45.511 0-62.578 0 0 0 0 0 0l-170.667-170.667c-11.378-11.378-22.756-17.067-34.133-17.067zM130.844 448c-22.756 0-45.511 17.067-45.511 45.511v79.644c0 119.467 96.711 210.489 216.178 210.489h597.333c22.756 0 45.511-17.067 45.511-45.511s-17.067-45.511-45.511-45.511h-597.333c-68.267 0-125.156-56.889-125.156-125.156v-85.333c-5.689-17.067-22.756-34.133-45.511-34.133zM301.511-64c-11.378 0-22.756 5.689-28.444 11.378l-170.667 170.667c-17.067 17.067-17.067 45.511 0 62.578 0 0 0 0 0 0l170.667 170.667c17.067 17.067 45.511 17.067 62.578 0s17.067-39.822 0-56.889l-142.222-142.222 142.222-142.222c17.067-17.067 17.067-45.511 0-62.578-17.067-5.689-28.444-11.378-34.133-11.378zM722.489 106.667h-591.644c-22.756 0-45.511 17.067-45.511 45.511s17.067 45.511 45.511 45.511h597.333c68.267 0 125.156 56.889 125.156 125.156v85.333c0 22.756 17.067 45.511 45.511 45.511s45.511-17.067 45.511-45.511v-85.333c-5.689-119.467-102.4-216.178-221.867-216.178z" />
<glyph unicode="&#xe91c;" glyph-name="product_compare_2" d="M1012.622 248.889l-159.289 159.289c-17.067 17.067-51.2 17.067-68.267 0-11.378-11.378-11.378-22.756-11.378-34.133v-79.644h-62.578l-108.089 113.778-108.089-113.778 142.222-153.6c5.689-5.689 11.378-5.689 17.067-5.689h119.467v-79.644c0-28.444 22.756-45.511 45.511-45.511 11.378 0 22.756 5.689 34.133 11.378l159.289 159.289c17.067 17.067 17.067 51.2 0 68.267zM22.756 612.978h170.667l108.089-113.778 108.089 113.778-147.911 153.6c-5.689 5.689-11.378 5.689-17.067 11.378h-221.867c-11.378 0-22.756-11.378-22.756-28.444v-113.778c0-11.378 11.378-22.756 22.756-22.756zM768 612.978v-79.644c0-28.444 22.756-45.511 45.511-45.511 11.378 0 22.756 5.689 34.133 11.378l159.289 159.289c17.067 17.067 17.067 51.2 0 68.267l-159.289 159.289c-17.067 17.067-51.2 17.067-68.267 0-11.378-11.378-11.378-22.756-11.378-34.133v-79.644h-119.467c-5.689 0-11.378-5.689-17.067-5.689l-443.733-472.178h-170.667c-11.378 0-22.756-11.378-22.756-22.756v-113.778c0-11.378 11.378-22.756 22.756-22.756v0h221.867c5.689 0 11.378 0 17.067 5.689l443.733 472.178h68.267z" />
<glyph unicode="&#xe91d;" glyph-name="product_compare_3" horiz-adv-x="919" d="M252.062-64c-10.503 0-21.005 5.251-26.256 10.503l-210.051 210.051c-5.251 5.251-5.251 10.503-10.503 10.503-5.251 10.503-5.251 10.503-5.251 15.754s0 10.503 5.251 15.754c0 5.251 5.251 10.503 10.503 10.503l210.051 210.051c15.754 15.754 42.010 15.754 57.764 0s15.754-42.010 0-57.764l-147.036-136.533h535.631c21.005 0 42.010-15.754 42.010-42.010s-15.754-42.010-42.010-42.010h-535.631l141.785-141.785c15.754-15.754 15.754-42.010 0-57.764-10.503 0-21.005-5.251-26.256-5.251zM672.164 461.128c-10.503 0-21.005 5.251-26.256 10.503-15.754 15.754-15.754 42.010 0 57.764l141.785 141.785h-535.631c-26.256 0-42.010 15.754-42.010 36.759s15.754 42.010 42.010 42.010h535.631l-141.785 141.785c-15.754 15.754-15.754 42.010 0 57.764s42.010 15.754 57.764 0l210.051-210.051c5.251-5.251 5.251-10.503 10.503-10.503 0-5.251 5.251-10.503 5.251-15.754s0-10.503-5.251-15.754c0-5.251-5.251-10.503-10.503-10.503l-210.051-210.051c-15.754-10.503-26.256-15.754-31.508-15.754z" />
<glyph unicode="&#xe91e;" glyph-name="product_compare_4" d="M830.18 136.306h-91.022c-56.889 0-108.089 22.756-147.911 62.578l-443.733 443.733c-11.378 11.378-28.444 22.756-51.2 22.756 0 0 0 0 0 0h-96.711v85.333h96.711c0 0 0 0 0 0 39.822 0 79.644-17.067 108.089-45.511l443.733-443.733c22.756-22.756 51.2-34.133 85.333-34.133h91.022v-91.022zM90.624 141.995h-91.022v85.333h91.022c34.133 0 62.578 11.378 85.333 34.133l96.711 96.711 62.578-62.578-96.711-96.711c-39.822-39.822-96.711-56.889-147.911-56.889zM551.424 517.461l-62.578 62.578 125.156 125.156c28.444 28.444 68.267 45.511 108.089 45.511h96.711v-85.333h-85.333c-17.067 0-34.133-5.689-51.2-22.756l-130.844-125.156zM1023.602 705.195l-199.111 199.111v-398.222l199.111 199.111zM1023.602 181.817l-199.111 199.111v-398.222l199.111 199.111z" />
<glyph unicode="&#xe91f;" glyph-name="product_compare_5" d="M946.338 170.173h-172.463c-70.063 0-134.737 26.947-183.242 80.842l-258.695 323.368c-43.116 43.116-102.4 70.063-161.684 70.063h-167.074v80.842h167.074c86.232 0 167.074-37.726 226.358-97.011l258.695-323.368c32.337-32.337 75.453-53.895 123.958-53.895h172.463v-80.842zM143.306 170.173c0 0 0 0 0 0h-140.126v80.842h140.126c0 0 0 0 0 0 59.284 0 113.179 21.558 161.684 53.895l48.505 59.284 64.674-48.505-59.284-70.063c-64.674-48.505-140.126-75.453-215.579-75.453zM596.022 542.046l-64.674 48.505 21.558 26.947c53.895 59.284 97.011 102.4 188.632 102.4h199.411v-80.842h-199.411c-53.895 0-75.453-16.168-129.347-70.063l-16.168-26.947zM854.717 509.709l-59.284 53.895 118.568 118.568-118.568 113.179 59.284 59.284 172.463-172.463zM854.717 35.436l-59.284 59.284 118.568 113.179-118.568 118.568 59.284 53.895 172.463-172.463z" />
<glyph unicode="&#xe920;" glyph-name="product_compare_6" horiz-adv-x="996" d="M631.467 129.422h-318.578c-170.667 0-312.889 142.222-312.889 318.578 0 22.756 0 45.511 5.689 62.578 5.689 22.756 28.444 39.822 51.2 34.133s39.822-28.444 34.133-51.2c-5.689-17.067-5.689-34.133-5.689-45.511 0-125.156 102.4-227.556 227.556-227.556h312.889c22.756 0 45.511-17.067 45.511-45.511s-17.067-45.511-39.822-45.511zM887.467 220.444l-216.178 187.733c-17.067 11.378-39.822 0-39.822-17.067v-432.356c0-22.756 22.756-34.133 39.822-17.067l216.178 187.733c28.444 22.756 28.444 68.267 0 91.022zM950.044 356.978c0 0-5.689 0-5.689 0-22.756 5.689-39.822 28.444-34.133 51.2 0 17.067 0 28.444 0 39.822 0 125.156-102.4 227.556-227.556 227.556h-312.889c-22.756 0-45.511 17.067-45.511 45.511s17.067 45.511 45.511 45.511h312.889c176.356 0 312.889-142.222 312.889-312.889 0-17.067 0-34.133-5.689-56.889 0-22.756-17.067-39.822-39.822-39.822zM108.089 675.556l216.178-187.733c17.067-11.378 39.822 0 39.822 17.067v432.356c0 22.756-22.756 34.133-39.822 17.067l-216.178-187.733c-22.756-22.756-22.756-68.267 0-91.022z" />
<glyph unicode="&#xe921;" glyph-name="product_content" d="M772.516-62.11c-78.769 0-147.036 63.015-147.036 147.036 0 26.256 5.251 47.262 15.754 63.015h-267.815c10.503-21.005 15.754-42.010 15.754-63.015 0-78.769-63.015-147.036-147.036-147.036-78.769 0-147.036 63.015-147.036 147.036 0 26.256 5.251 52.513 21.005 73.518-10.503 5.251-15.754 10.503-26.256 15.754-36.759 36.759-36.759 94.523 0 131.282l105.026 105.026-78.769 399.097-15.754 73.518h-63.015c-21.005 0-42.010 15.754-42.010 42.010s15.754 42.010 42.010 42.010h105.026c21.005 0 36.759-15.754 36.759-31.508l99.774-493.621h467.364l168.041 341.333h-5.251c-21.005 0-42.010 15.754-42.010 42.010s15.754 42.010 42.010 42.010h73.518c15.754 0 26.256-5.251 31.508-21.005 5.251-10.503 5.251-26.256 0-36.759l-210.051-420.103c-5.251-15.754-21.005-21.005-36.759-21.005h-509.374l-110.277-110.277c-5.251-5.251-5.251-15.754 0-21.005 0 0 5.251-5.251 10.503-5.251h614.4c78.769 0 147.036-63.015 147.036-147.036s-63.015-147.036-147.036-147.036zM772.516 147.942c-36.759 0-63.015-31.508-63.015-63.015s31.508-63.015 63.015-63.015 63.015 31.508 63.015 63.015-26.256 63.015-63.015 63.015v0zM247.388 147.942c-36.759 0-63.015-31.508-63.015-63.015s31.508-63.015 63.015-63.015 63.015 31.508 63.015 63.015-26.256 63.015-63.015 63.015zM263.142 778.096h-99.774c-21.005 0-42.010 15.754-42.010 42.010s15.754 42.010 42.010 42.010h99.774c21.005 0 42.010-15.754 42.010-42.010s-21.005-42.010-42.010-42.010zM919.552 778.096h-383.344c-21.005 0-42.010 15.754-42.010 42.010s15.754 42.010 42.010 42.010h383.344c21.005 0 42.010-15.754 42.010-42.010s-15.754-42.010-42.010-42.010zM704.249 578.547h-157.538c-21.005 0-42.010 15.754-42.010 42.010s15.754 42.010 42.010 42.010h157.538c21.005 0 42.010-15.754 42.010-42.010s-15.754-42.010-42.010-42.010zM389.173 578.547c-21.005 0-42.010 15.754-42.010 42.010s15.754 42.010 36.759 42.010v0c21.005 0 42.010-15.754 42.010-42.010s-10.503-42.010-36.759-42.010z" />
<glyph unicode="&#xe922;" glyph-name="product_excerpt" horiz-adv-x="814" d="M672.164-64h-525.128c-78.769 0-147.036 63.015-147.036 147.036v630.154c0 78.769 63.015 141.785 147.036 141.785h73.518c15.754 63.015 73.518 105.026 136.533 105.026h105.026c68.267 0 120.779-42.010 136.533-105.026h73.518c78.769 0 147.036-63.015 147.036-147.036v-630.154c-5.251-78.769-68.267-141.785-147.036-141.785zM147.036 776.205c-36.759 0-63.015-31.508-63.015-63.015v-630.154c0-36.759 31.508-63.015 63.015-63.015h525.128c36.759 0 63.015 31.508 63.015 63.015v630.154c0 36.759-31.508 63.015-63.015 63.015h-73.518c-15.754-63.015-73.518-105.026-136.533-105.026h-105.026c-68.267 0-120.779 42.010-136.533 105.026h-73.518zM288.821 812.964c0-31.508 31.508-63.015 68.267-63.015h105.026c31.508 0 63.015 31.508 63.015 63.015s-31.508 68.267-63.015 68.267h-105.026c-36.759 0-68.267-31.508-68.267-68.267zM357.087 198.564c-10.503 0-21.005 5.251-26.256 10.503l-105.026 105.026c-15.754 15.754-15.754 42.010 0 57.764s42.010 15.754 57.764 0l78.769-78.769 183.795 183.795c15.754 15.754 42.010 15.754 57.764 0s15.754-42.010 0-57.764l-210.051-210.051c-21.005-5.251-31.508-10.503-36.759-10.503z" />
<glyph unicode="&#xe923;" glyph-name="product_images" d="M866.011-64h-702.171c-87.771 0-163.84 70.217-163.84 163.84v702.171c0 87.771 70.217 157.989 163.84 157.989h702.171c87.771 0 163.84-70.217 163.84-163.84v-468.114c0 0 0 0 0 0v-234.057c-5.851-87.771-76.069-157.989-163.84-157.989zM87.771 193.463v-99.474c0-40.96 35.109-70.217 70.217-70.217h702.171c40.96 0 70.217 35.109 70.217 70.217v216.503l-81.92 81.92c-29.257 29.257-76.069 29.257-105.326 0l-64.366-64.366 87.771-87.771c17.554-17.554 17.554-46.811 0-64.366s-46.811-17.554-64.366 0l-257.463 275.017c-29.257 29.257-76.069 29.257-105.326 0l-251.611-257.463zM163.84 872.229c-40.96 0-70.217-35.109-70.217-70.217v-479.817l193.097 193.097c64.366 64.366 163.84 64.366 228.206 0l122.88-122.88 64.366 64.366c58.514 58.514 169.691 58.514 228.206 0l5.851-17.554v356.937c0 40.96-35.109 70.217-70.217 70.217h-702.171zM631.954 638.171c-23.406 0-46.811 17.554-46.811 46.811s17.554 40.96 46.811 40.96v0c23.406 0 46.811-17.554 46.811-46.811s-23.406-40.96-46.811-40.96z" />
<glyph unicode="&#xe924;" glyph-name="product_meta" d="M672.164-64c-21.005 0-42.010 15.754-42.010 42.010v63.015h-236.308v-63.015c0-21.005-15.754-42.010-42.010-42.010s-36.759 15.754-36.759 36.759v63.015h-63.015c-78.769 0-147.036 63.015-147.036 147.036v63.015h-63.015c-21.005 0-42.010 15.754-42.010 42.010s15.754 42.010 42.010 42.010h63.015v236.308h-63.015c-26.256 0-42.010 15.754-42.010 36.759s15.754 42.010 42.010 42.010h63.015v63.015c0 84.021 63.015 147.036 147.036 147.036h63.015v63.015c0 26.256 15.754 42.010 42.010 42.010s42.010-15.754 42.010-42.010v-63.015h231.056v63.015c0 26.256 15.754 42.010 42.010 42.010s42.010-15.754 42.010-42.010v-63.015h63.015c78.769 0 147.036-63.015 147.036-147.036v-63.015h63.015c21.005 0 42.010-15.754 42.010-42.010s-15.754-42.010-42.010-42.010h-63.015v-231.056h63.015c21.005 0 42.010-15.754 42.010-42.010s-15.754-42.010-42.010-42.010h-63.015v-63.015c0-78.769-63.015-147.036-147.036-147.036h-63.015v-63.015c-5.251-21.005-21.005-36.759-42.010-36.759zM183.795 287.836v-105.026c0-36.759 31.508-63.015 63.015-63.015h525.128c36.759 0 63.015 31.508 63.015 63.015v525.128c0 36.759-31.508 63.015-63.015 63.015h-525.128c-36.759 0-63.015-31.508-63.015-63.015v-420.103zM672.164 251.077h-315.077c-21.005 0-42.010 15.754-42.010 42.010v315.077c0 21.005 15.754 36.759 42.010 36.759h315.077c21.005 0 42.010-15.754 42.010-42.010v-315.077c-5.251-21.005-21.005-36.759-42.010-36.759zM393.846 329.846h236.308v236.308h-236.308v-236.308z" />
<glyph unicode="&#xe925;" glyph-name="product_price" horiz-adv-x="814" d="M408.025 194.416c-21.005 0-42.010 15.754-42.010 42.010s15.754 42.010 42.010 42.010c52.513 0 89.272 26.256 89.272 47.262s-42.010 47.262-89.272 47.262c-94.523 0-168.041 57.764-168.041 126.031s73.518 126.031 168.041 126.031c21.005 0 42.010-15.754 42.010-42.010s-15.754-42.010-42.010-42.010c-52.513 0-89.272-26.256-89.272-47.262s42.010-47.262 89.272-47.262c94.523 0 168.041-57.764 168.041-126.031 0-73.518-73.518-126.031-168.041-126.031zM518.302 498.99c-10.503 0-21.005 5.251-26.256 10.503-21.005 21.005-52.513 31.508-84.021 31.508-21.005 0-42.010 15.754-42.010 36.759s15.754 42.010 36.759 42.010c52.513 5.251 105.026-15.754 141.785-52.513 15.754-15.754 15.754-42.010 0-57.764-5.251-5.251-15.754-10.503-26.256-10.503zM408.025 541c-21.005 0-42.010 15.754-42.010 42.010v42.010c0 21.005 15.754 42.010 42.010 42.010s42.010-15.754 42.010-42.010v-42.010c-5.251-21.005-21.005-42.010-42.010-42.010zM402.773 194.416c-52.513 0-99.774 21.005-136.533 57.764-15.754 15.754-15.754 42.010 0 57.764s42.010 15.754 57.764 0c21.005-21.005 52.513-31.508 84.021-31.508 21.005 0 42.010-15.754 42.010-36.759s-15.754-42.010-36.759-42.010c-5.251-5.251-10.503-5.251-10.503-5.251zM670.589-62.897c-21.005 0-42.010 15.754-42.010 42.010s15.754 36.759 42.010 36.759c36.759 0 63.015 31.508 63.015 63.015v504.123c0 5.251 0 5.251-5.251 10.503l-283.569 283.569c0 0-5.251 5.251-10.503 5.251h-294.072c-36.759 0-63.015-31.508-63.015-63.015v-735.179c0-36.759 31.508-63.015 63.015-63.015h157.538c36.759 0 63.015 26.256 63.015 63.015v498.872c0 21.005 15.754 42.010 42.010 42.010s42.010-15.754 42.010-42.010v-504.123c0-78.769-63.015-141.785-141.785-141.785h-157.538c-78.769 0-147.036 63.015-147.036 141.785v735.179c0 78.769 63.015 147.036 147.036 147.036h294.072c26.256 0 47.262-10.503 63.015-26.256l283.569-283.569c15.754-15.754 26.256-42.010 26.256-63.015v-504.123c0-84.021-63.015-147.036-141.785-147.036z" />
<glyph unicode="&#xe926;" glyph-name="product_reviews" d="M778.24-58.88c-20.48 0-35.84 5.12-51.2 15.36l-204.8 148.48c-5.12 5.12-10.24 5.12-15.36 0l-199.68-143.36c-40.96-30.72-97.28-20.48-122.88 20.48-15.36 20.48-20.48 51.2-10.24 81.92l76.8 240.64c0 5.12 0 10.24-5.12 15.36l-204.8 148.48c-40.96 30.72-51.2 87.040-20.48 122.88 15.36 25.6 46.080 35.84 71.68 35.84 0 0 0 0 0 0h250.88c0 0 0 0 0 0 5.12 0 10.24 5.12 10.24 10.24l76.8 240.64c0 0 0 0 0 0 15.36 46.080 66.56 71.68 112.64 56.32 25.6-10.24 46.080-30.72 56.32-56.32l76.8-240.64c0-5.12 5.12-10.24 10.24-10.24h250.88c0 0 0 0 0 0 51.2 0 87.040-40.96 87.040-87.040 0-30.72-15.36-56.32-35.84-71.68l-204.8-148.48c-5.12-5.12-5.12-10.24-5.12-15.36l76.8-240.64c5.12-20.48 5.12-46.080-5.12-66.56s-30.72-35.84-51.2-46.080c0-5.12-10.24-10.24-20.48-10.24zM517.12 186.88c20.48 0 35.84-5.12 51.2-15.36l204.8-148.48c5.12 0 5.12-5.12 10.24 0 5.12 0 5.12 5.12 5.12 5.12s0 5.12 0 10.24l-71.68 240.64c-10.24 35.84 0 76.8 30.72 102.4l204.8 148.48c5.12 0 5.12 5.12 5.12 10.24s-5.12 15.36-10.24 15.36v0h-250.88c-40.96 0-71.68 25.6-87.040 61.44l-76.8 240.64c0 5.12-5.12 5.12-10.24 10.24-5.12 0-15.36 0-15.36-10.24l-81.92-245.76c-10.24-40.96-46.080-66.56-81.92-66.56 0 0 0 0 0 0h-250.88c-5.12 0-10.24 0-10.24-5.12-5.12-5.12-5.12-10.24 0-15.36l204.8-148.48c30.72-20.48 46.080-61.44 30.72-102.4l-76.8-240.64c0-5.12 0-10.24 0-10.24 5.12-5.12 10.24-5.12 15.36-5.12l204.8 148.48c20.48 15.36 35.84 20.48 56.32 20.48z" />
<glyph unicode="&#xe927;" glyph-name="product_share" d="M824.451-64c-31.508 0-57.764 5.251-89.272 21.005-47.262 21.005-84.021 63.015-99.774 115.528-10.503 36.759-15.754 78.769-5.251 115.528l-283.569 141.785c-21.005-31.508-57.764-52.513-94.523-63.015-47.262-15.754-105.026-10.503-152.287 10.503-94.523 47.262-136.533 168.041-89.272 262.564s168.041 136.533 262.564 89.272c26.256-10.503 47.262-31.508 68.267-52.513l283.569 141.785c0 31.508 5.251 68.267 15.754 105.026 15.754 52.513 52.513 89.272 99.774 115.528 94.523 47.262 215.303 10.503 262.564-89.272 47.262-94.523 10.503-215.303-89.272-262.564-47.262-26.256-99.774-26.256-152.287-10.503-36.759 10.503-68.267 36.759-94.523 63.015l-278.318-141.785c10.503-31.508 10.503-68.267 0-99.774l283.569-141.785c21.005 31.508 57.764 52.513 94.523 63.015 47.262 15.754 105.026 10.503 152.287-10.503 94.523-47.262 136.533-168.041 89.272-262.564-21.005-47.262-63.015-84.021-115.528-99.774-26.256-5.251-47.262-10.503-68.267-10.503zM719.426 188.062v0c-15.754-26.256-15.754-57.764-5.251-89.272s31.508-52.513 57.764-68.267c26.256-15.754 57.764-15.754 89.272-5.251s52.513 31.508 68.267 57.764c15.754 26.256 15.754 57.764 5.251 89.272s-31.508 52.513-57.764 68.267c-26.256 15.754-57.764 15.754-89.272 5.251-26.256-10.503-52.513-31.508-68.267-57.764v0 0c0 0 0 0 0 0s0 0 0 0zM199.549 566.154c-42.010 0-84.021-26.256-105.026-63.015-31.508-57.764-5.251-131.282 52.513-157.538 26.256-15.754 57.764-15.754 89.272-5.251s52.513 31.508 68.267 57.764c15.754 31.508 15.754 73.518 0 105.026 0 0 0 0 0 0-10.503 21.005-31.508 42.010-52.513 52.513-21.005 5.251-36.759 10.503-52.513 10.503zM719.426 707.938c15.754-26.256 42.010-47.262 68.267-57.764 31.508-10.503 63.015-5.251 89.272 5.251 57.764 31.508 84.021 99.774 52.513 157.538s-99.774 84.021-157.538 52.513c-57.764-26.256-78.769-94.523-52.513-157.538 0 5.251 0 0 0 0s0 0 0 0z" />
<glyph unicode="&#xe928;" glyph-name="product_sku" d="M512-64c-52.784 0-100.289 15.835-142.515 52.784-21.113 21.113-52.784 31.67-79.175 31.67-110.845 10.557-195.299 95.010-200.577 200.577 0 31.67-15.835 58.062-31.67 79.175-73.897 89.732-73.897 211.134-5.278 290.309 21.113 21.113 31.67 52.784 31.67 79.175 10.557 110.845 95.010 195.299 200.577 200.577v0c31.67 5.278 58.062 15.835 84.454 36.948 84.454 68.619 200.577 68.619 285.031 0 21.113-21.113 52.784-31.67 79.175-31.67 105.567-10.557 195.299-95.010 200.577-200.577 5.278-31.67 15.835-58.062 36.948-84.454 68.619-84.454 68.619-200.577 0-285.031-21.113-21.113-31.67-52.784-31.67-79.175-10.557-110.845-95.010-195.299-200.577-200.577-31.67 0-58.062-15.835-79.175-31.67-47.505-36.948-100.289-58.062-147.794-58.062zM295.588 796.371c-68.619-5.278-126.68-63.34-131.959-131.959-5.278-47.505-21.113-89.732-52.784-126.68-47.505-52.784-47.505-131.959 0-184.742 31.67-36.948 47.505-79.175 52.784-126.68 5.278-68.619 58.062-121.402 126.68-126.68 47.505-5.278 89.732-21.113 126.68-52.784 52.784-47.505 131.959-47.505 184.742 0 36.948 31.67 79.175 47.505 126.68 52.784 68.619 5.278 121.402 58.062 126.68 126.68 5.278 47.505 21.113 89.732 52.784 126.68 47.505 52.784 47.505 131.959 0 184.742-31.67 36.948-47.505 79.175-52.784 126.68-5.278 68.619-58.062 121.402-126.68 126.68-47.505 5.278-89.732 21.113-126.68 52.784-52.784 47.505-131.959 47.505-184.742 0-31.67-26.392-73.897-47.505-121.402-47.505v0zM290.309 833.32v0 0zM459.216 305.485c-10.557 0-21.113 5.278-26.392 10.557l-105.567 105.567c-15.835 15.835-15.835 42.227 0 58.062s42.227 15.835 58.062 0l79.175-79.175 184.742 184.742c15.835 15.835 42.227 15.835 58.062 0s15.835-42.227 0-58.062l-211.134-211.134c-15.835-10.557-26.392-10.557-36.948-10.557z" />
<glyph unicode="&#xe929;" glyph-name="product_tabs" d="M860.16 64h-716.8c-76.8 0-143.36 61.44-143.36 143.36v512c0 76.8 61.44 138.24 143.36 138.24h204.8c10.24 0 20.48-5.12 25.6-10.24l92.16-92.16h189.44c76.8 0 143.36-61.44 143.36-143.36v-10.24h61.44c76.8 0 143.36-61.44 143.36-143.36v-256c-5.12-76.8-66.56-138.24-143.36-138.24zM266.24 140.8h593.92c35.84 0 61.44 30.72 61.44 61.44v256c0 35.84-30.72 61.44-61.44 61.44h-512c-35.84 0-61.44-30.72-61.44-61.44v-256c-5.12-20.48-10.24-40.96-20.48-61.44zM143.36 780.8c-35.84 0-61.44-30.72-61.44-61.44v-512c0-35.84 30.72-61.44 61.44-61.44s61.44 25.6 61.44 56.32v256c0 81.92 61.44 143.36 143.36 143.36h368.64v10.24c0 35.84-30.72 61.44-61.44 61.44h-204.8c-10.24 0-20.48 5.12-25.6 10.24l-97.28 97.28h-184.32z" />
<glyph unicode="&#xe92a;" glyph-name="product_tags" d="M514.626-64c-36.759 0-73.518 15.754-99.774 42.010l-367.59 367.59c-31.508 26.256-47.262 63.015-47.262 105.026v262.564c0 136.533 110.277 246.81 252.062 246.81h262.564c0 0 0 0 0 0 36.759 0 73.518-15.754 99.774-42.010l367.59-367.59c57.764-57.764 57.764-147.036 0-204.8l-367.59-367.59c-26.256-26.256-63.015-42.010-99.774-42.010zM252.062 881.231c-94.523 0-173.292-78.769-173.292-173.292v-262.564c0-15.754 5.251-31.508 21.005-47.262l367.59-367.59c26.256-26.256 68.267-26.256 94.523 0l367.59 367.59c26.256 26.256 26.256 68.267 0 94.523l-367.59 367.59c-10.503 10.503-31.508 21.005-47.262 21.005h-262.564zM252.062 671.179c-26.256 0-42.010 15.754-42.010 36.759s15.754 42.010 42.010 42.010v0c21.005 0 42.010-15.754 42.010-42.010s-21.005-36.759-42.010-36.759z" />
<glyph unicode="&#xe92b;" glyph-name="product_title" horiz-adv-x="919" d="M882.215-64h-840.205c-10.503 0-21.005 5.251-31.508 10.503s-10.503 21.005-10.503 31.508l52.513 630.154c0 21.005 21.005 36.759 42.010 36.759h115.528v63.015c0 141.785 110.277 252.062 252.062 252.062 136.533 0 252.062-110.277 252.062-252.062v-63.015h115.528c21.005 0 36.759-15.754 36.759-36.759l52.513-630.154c0-10.503-5.251-21.005-10.503-31.508-5.251-5.251-15.754-10.503-26.256-10.503zM84.021 14.769h756.185l-47.262 551.385h-84.021v-63.015c0-21.005-15.754-42.010-42.010-42.010s-36.759 15.754-36.759 36.759v68.267h-341.333v-63.015c0-21.005-15.754-42.010-42.010-42.010s-36.759 15.754-36.759 36.759v68.267h-84.021l-42.010-551.385zM288.821 644.923h341.333v63.015c0 94.523-78.769 168.041-173.292 168.041-89.272 5.251-168.041-73.518-168.041-168.041v-63.015z" />
<glyph unicode="&#xe92c;" glyph-name="quick_view_1" d="M501.858 274.895c-102.4 0-185.295 82.895-185.295 185.295s82.895 185.295 185.295 185.295c102.4 0 185.295-82.895 185.295-185.295-4.876-102.4-82.895-185.295-185.295-185.295zM501.858 567.467c-58.514 0-107.276-48.762-107.276-107.276s48.762-107.276 107.276-107.276 107.276 48.762 107.276 107.276-48.762 107.276-107.276 107.276zM501.858 79.848c-53.638 0-102.4 9.752-156.038 24.381-165.79 53.638-292.571 180.419-341.333 341.333 0 4.876 0 14.629 0 19.505 39.010 141.41 131.657 248.686 253.562 312.076s268.19 78.019 399.848 34.133c165.79-53.638 292.571-180.419 341.333-341.333 0-4.876 0-14.629 0-19.505-68.267-224.305-273.067-370.59-497.371-370.59zM72.753 460.19c48.762-136.533 156.038-243.81 292.571-282.819 234.057-73.143 482.743 53.638 560.762 282.819-48.762 136.533-156.038 243.81-292.571 282.819-117.029 34.133-238.933 24.381-346.21-29.257-97.524-53.638-175.543-146.286-214.552-253.562z" />
<glyph unicode="&#xe92d;" glyph-name="quick_view_2" d="M500.2 276.894c-102.4 0-185.295 82.895-185.295 185.295s82.895 185.295 185.295 185.295c102.4 0 185.295-82.895 185.295-185.295 0-19.505-14.629-39.010-39.010-39.010s-39.010 14.629-39.010 39.010c0 58.514-48.762 107.276-107.276 107.276s-107.276-48.762-107.276-107.276 48.762-107.276 107.276-107.276c19.505 0 39.010-14.629 39.010-39.010s-19.505-39.010-39.010-39.010zM500.2 81.847c-53.638 0-102.4 9.752-156.038 24.381-165.79 53.638-292.571 180.419-341.333 341.333 0 4.876 0 14.629 0 19.505 19.505 68.267 53.638 126.781 102.4 180.419 14.629 14.629 34.133 19.505 53.638 4.876 14.629-14.629 19.505-34.133 4.876-53.638-39.010-43.886-63.39-92.648-82.895-146.286 48.762-136.533 156.038-243.81 292.571-282.819 234.057-73.143 482.743 53.638 560.762 282.819-48.762 136.533-156.038 243.81-292.571 282.819-97.524 29.257-204.8 29.257-297.448-9.752-19.505-9.752-39.010 0-48.762 19.505s0 39.010 19.505 48.762c112.152 43.886 234.057 48.762 346.21 9.752 165.79-53.638 292.571-180.419 341.333-341.333 0-4.876 0-14.629 0-19.505-68.267-219.429-277.943-360.838-502.248-360.838z" />
<glyph unicode="&#xe92e;" glyph-name="quick_view_3" d="M517.12 663.040c-20.48 0-35.84-5.12-56.32-10.24 10.24-15.36 10.24-30.72 15.36-46.080 0-56.32-46.080-102.4-102.4-102.4-15.36 0-30.72 5.12-46.080 10.24-5.12-15.36-10.24-35.84-10.24-51.2 0-112.64 92.16-199.68 199.68-199.68 112.64 0 199.68 92.16 199.68 199.68 5.12 107.52-87.040 199.68-199.68 199.68v0zM1029.12 488.96c-97.28 194.56-291.84 317.44-512 317.44-215.040 0-414.72-122.88-512-317.44-5.12-10.24-5.12-20.48-5.12-30.72s0-20.48 5.12-25.6c97.28-194.56 296.96-317.44 512-317.44s414.72 122.88 512 317.44c5.12 10.24 5.12 15.36 5.12 25.6s0 20.48-5.12 30.72zM517.12 202.24c-179.2 0-343.040 102.4-430.080 261.12 81.92 158.72 250.88 256 430.080 261.12 179.2 0 343.040-102.4 430.080-261.12-87.040-158.72-250.88-261.12-430.080-261.12z" />
<glyph unicode="&#xe92f;" glyph-name="quick_view_4" d="M1029.12 488.96c-97.28 194.56-291.84 317.44-512 317.44-215.040 0-414.72-122.88-512-317.44-5.12-10.24-5.12-20.48-5.12-30.72s0-20.48 5.12-25.6c97.28-194.56 296.96-317.44 512-317.44s414.72 122.88 512 317.44c5.12 10.24 5.12 15.36 5.12 25.6s0 20.48-5.12 30.72zM517.12 202.24c-143.36 0-261.12 117.76-261.12 261.12s117.76 261.12 261.12 261.12c143.36 0 261.12-117.76 261.12-261.12v0c0-143.36-117.76-261.12-261.12-261.12 0 0 0 0 0 0zM517.12 632.32c-15.36 0-30.72-5.12-46.080-5.12 10.24-15.36 15.36-30.72 15.36-51.2 0-46.080-40.96-87.040-87.040-87.040-20.48 0-35.84 5.12-51.2 15.36 0-10.24 0-25.6 0-40.96 0-97.28 76.8-174.080 174.080-174.080 0 0 0 0 0 0 97.28 0 174.080 76.8 174.080 174.080-5.12 92.16-81.92 168.96-179.2 168.96v0z" />
<glyph unicode="&#xe930;" glyph-name="related_product" d="M866.011-64h-468.114c-87.771 0-163.84 70.217-163.84 163.84v70.217h-70.217c-87.771 0-163.84 70.217-163.84 163.84v468.114c0 87.771 70.217 157.989 163.84 157.989h468.114c87.771 0 163.84-70.217 163.84-163.84v-70.217h70.217c87.771 0 163.84-70.217 163.84-163.84v-468.114c-5.851-87.771-76.069-157.989-163.84-157.989zM321.829 211.017v-117.029c0-40.96 35.109-70.217 70.217-70.217h468.114c40.96 0 70.217 35.109 70.217 70.217v468.114c0 40.96-35.109 70.217-70.217 70.217h-468.114c-40.96 0-70.217-35.109-70.217-70.217v-351.086zM163.84 872.229c-40.96 0-70.217-35.109-70.217-70.217v-468.114c0-40.96 35.109-70.217 70.217-70.217h70.217v298.423c0 93.623 70.217 163.84 163.84 163.84h304.274v70.217c0 40.96-35.109 70.217-70.217 70.217h-468.114z" />
<glyph unicode="&#xe931;" glyph-name="return_to_shop" horiz-adv-x="919" d="M882.215-64c-5.251 0-10.503 0-15.754 5.251l-194.297 94.523-194.297-94.523c-10.503-5.251-26.256-5.251-36.759 0l-194.297 94.523-194.297-94.523c-10.503-5.251-26.256-5.251-36.759 0s-15.754 21.005-15.754 31.508v840.205c0 84.021 63.015 147.036 147.036 147.036h630.154c78.769 0 147.036-63.015 147.036-147.036v-840.205c0-15.754-5.251-26.256-21.005-31.508-10.503-5.251-15.754-5.251-21.005-5.251zM252.062 119.795c5.251 0 10.503 0 15.754-5.251l194.297-94.523 194.297 94.523c10.503 5.251 26.256 5.251 36.759 0l152.287-78.769v777.19c0 36.759-31.508 63.015-63.015 63.015h-630.154c-36.759 0-63.015-31.508-63.015-63.015v-777.19l152.287 78.769c-5.251 5.251 0 5.251 10.503 5.251zM672.164 251.077c-21.005 0-42.010 15.754-42.010 42.010v52.513c0 94.523-78.769 168.041-173.292 168.041h-110.277l89.272-89.272c15.754-15.754 15.754-42.010 0-57.764s-42.010-15.754-57.764 0l-157.538 157.538c-5.251 5.251-5.251 10.503-5.251 15.754-5.251 5.251-5.251 5.251-5.251 10.503s0 10.503 5.251 15.754c0 5.251 5.251 10.503 10.503 10.503l157.538 157.538c15.754 15.754 42.010 15.754 57.764 0s15.754-42.010 0-57.764l-94.523-84.021h115.528c136.533 0 252.062-110.277 252.062-252.062v-52.513c-5.251-21.005-21.005-36.759-42.010-36.759z" />
<glyph unicode="&#xe932;" glyph-name="shopping_cart_1" horiz-adv-x="919" d="M882.215-64h-840.205c-10.503 0-21.005 5.251-31.508 10.503s-10.503 21.005-10.503 31.508l52.513 630.154c0 21.005 21.005 36.759 42.010 36.759h115.528v63.015c0 141.785 110.277 252.062 252.062 252.062 136.533 0 252.062-110.277 252.062-252.062v-63.015h115.528c21.005 0 36.759-15.754 36.759-36.759l52.513-630.154c0-10.503-5.251-21.005-10.503-31.508-5.251-5.251-15.754-10.503-26.256-10.503zM84.021 14.769h756.185l-47.262 551.385h-84.021v-63.015c0-21.005-15.754-42.010-42.010-42.010s-36.759 15.754-36.759 36.759v68.267h-341.333v-63.015c0-21.005-15.754-42.010-42.010-42.010s-36.759 15.754-36.759 36.759v68.267h-84.021l-42.010-551.385zM288.821 644.923h341.333v63.015c0 94.523-78.769 168.041-173.292 168.041-89.272 5.251-168.041-73.518-168.041-168.041v-63.015z" />
<glyph unicode="&#xe933;" glyph-name="shopping_cart_2" d="M302.188 187.042c-53.895 0-97.011-43.116-97.011-91.621 0 0 0 0 0 0 0-26.947 10.779-48.505 26.947-64.674 37.726-37.726 97.011-37.726 134.737 0 16.168 16.168 26.947 43.116 26.947 64.674 0 26.947-10.779 48.505-26.947 70.063-16.168 10.779-43.116 21.558-64.674 21.558zM803.409 187.042c-26.947 0-48.505-10.779-64.674-32.337-32.337-37.726-32.337-97.011 5.389-129.347 16.168-16.168 37.726-26.947 64.674-26.947h5.389c26.947 0 48.505 10.779 64.674 32.337 10.779 10.779 16.168 21.558 21.558 32.337s5.389 26.947 5.389 37.726c-5.389 48.505-53.895 91.621-102.4 86.232 0 0 0 0 0 0v0zM992.040 704.431c-5.389 5.389-10.779 10.779-16.168 16.168s-16.168 5.389-21.558 5.389h-495.832c-10.779 0-26.947-5.389-37.726-16.168s-16.168-21.558-16.168-32.337c0-26.947 21.558-48.505 48.505-48.505 0 0 0 0 0 0h420.379l-118.568-280.253h-382.653l-145.516 522.779c-5.389 10.779-10.779 16.168-16.168 26.947-10.779 5.389-21.558 10.779-32.337 10.779h-129.347c-26.947 0-48.505-21.558-48.505-48.505s21.558-48.505 48.505-48.505c0 0 0 0 0 0h91.621l145.516-517.389c0-10.779 10.779-21.558 16.168-26.947 10.779-5.389 21.558-10.779 32.337-10.779h447.326c10.779 0 21.558 0 26.947 5.389s16.168 10.779 16.168 21.558l161.684 377.263c5.389 5.389 5.389 16.168 5.389 26.947 5.389 0 0 10.779 0 16.168z" />
<glyph unicode="&#xe934;" glyph-name="shopping_cart_3" d="M932.466 875.236c0 22.756-11.378 45.511-34.133 62.578-17.067 17.067-39.822 22.756-62.578 22.756h-648.533c-22.756 0-45.511-5.689-68.267-22.756-17.067-17.067-28.444-39.822-34.133-62.578l-85.333-830.578c-5.689-28.444 5.689-56.889 22.756-79.644s45.511-34.133 73.956-34.133h824.889c28.444 0 51.2 11.378 73.956 28.444 22.756 22.756 28.444 51.2 22.756 73.956l-85.333 841.956zM175.844 863.858c0 5.689 0 5.689 5.689 5.689 0 0 5.689 5.689 5.689 5.689h648.533c5.689 0 5.689 0 5.689-5.689 0 0 5.689-5.689 5.689-11.378l91.022-836.267c0 0 0-5.689 0-5.689s0-5.689-11.378-5.689h-824.889c-5.689 0-11.378 0-11.378 5.689 0 0 0 5.689 0 11.378l85.333 836.267zM352.199 437.191c22.756-22.756 45.511-39.822 73.956-51.2s56.889-17.067 91.022-17.067c62.578 0 119.467 22.756 159.289 68.267 22.756 22.756 39.822 45.511 51.2 73.956s17.067 56.889 17.067 85.333v204.8c0 22.756-17.067 45.511-45.511 45.511-11.378 0-22.756-5.689-28.444-11.378s-11.378-17.067-11.378-28.444v-204.8c0-39.822-17.067-73.956-39.822-96.711-56.889-56.889-147.911-56.889-204.8 0-28.444 28.444-39.822 62.578-39.822 96.711v204.8c0 11.378-5.689 22.756-11.378 28.444-17.067 17.067-39.822 17.067-56.889 0-11.378-5.689-11.378-17.067-11.378-28.444v-204.8c0-28.444 5.689-62.578 17.067-85.333 0-34.133 17.067-62.578 39.822-79.644z" />
<glyph unicode="&#xe935;" glyph-name="shopping_cart_4" d="M777.19-64c-78.769 0-147.036 63.015-147.036 147.036 0 26.256 5.251 47.262 15.754 63.015h-267.815c10.503-21.005 15.754-42.010 15.754-63.015 0-78.769-63.015-147.036-147.036-147.036-78.769 0-147.036 63.015-147.036 147.036 0 26.256 5.251 52.513 21.005 73.518-10.503 5.251-15.754 10.503-26.256 15.754-36.759 36.759-36.759 94.523 0 131.282l105.026 105.026-73.518 399.097c0 0 0 0 0 0l-15.754 73.518h-68.267c-26.256 0-42.010 15.754-42.010 36.759s15.754 42.010 42.010 42.010h105.026c21.005 0 36.759-15.754 36.759-31.508l15.754-73.518h787.692c15.754 0 26.256-5.251 31.508-21.005 5.251-10.503 5.251-26.256 0-36.759l-210.051-420.103c-5.251-15.754-21.005-21.005-36.759-21.005h-504.123l-110.277-110.277c-5.251-5.251-5.251-5.251-5.251-10.503s0-5.251 5.251-10.503c0 0 5.251 0 10.503 0h609.149c78.769 0 147.036-63.015 147.036-147.036s-68.267-141.785-147.036-141.785zM777.19 146.051c-36.759 0-63.015-31.508-63.015-63.015s31.508-63.015 63.015-63.015 63.015 31.508 63.015 63.015-31.508 63.015-63.015 63.015zM252.062 146.051c-36.759 0-63.015-31.508-63.015-63.015s26.256-68.267 63.015-68.267 63.015 31.508 63.015 63.015-31.508 68.267-63.015 68.267zM283.569 434.872h467.364l168.041 341.333h-703.672l68.267-341.333z" />
<glyph unicode="&#xe936;" glyph-name="shopping_cart_5" d="M1015.353 606.549v0c-5.689 5.689-17.067 11.378-28.444 11.378h-221.867l-159.289 244.622c-5.689 11.378-11.378 17.067-22.756 17.067s-17.067 0-28.444-5.689c-11.378-5.689-17.067-11.378-17.067-22.756s0-17.067 5.689-28.444l136.533-199.111h-335.644l136.533 199.111c5.689 5.689 5.689 17.067 5.689 28.444s-5.689 17.067-17.067 22.756c-5.689 5.689-17.067 5.689-28.444 5.689s-17.067-5.689-22.756-17.067l-159.289-244.622h-216.178c-11.378 0-17.067-5.689-28.444-11.378-5.689-5.689-11.378-17.067-11.378-28.444s5.689-17.067 11.378-28.444c5.689-5.689 17.067-11.378 28.444-11.378h17.067l102.4-449.422c5.689-28.444 22.756-51.2 45.511-68.267s45.511-22.756 73.956-22.756h472.178c28.444 0 51.2 11.378 73.956 22.756 22.756 17.067 39.822 39.822 45.511 68.267l102.4 449.422h17.067c11.378 0 17.067 5.689 28.444 11.378 5.689 5.689 11.378 17.067 11.378 28.444-11.378 11.378-11.378 22.756-17.067 28.444zM776.42 83.172c-5.689-5.689-17.067-11.378-28.444-11.378h-472.178c-11.378 0-22.756 5.689-28.444 11.378-11.378 5.689-17.067 17.067-17.067 28.444l-108.089 432.356h768l-96.711-432.356c0-11.378-5.689-22.756-17.067-28.444v0zM315.62 447.26v0c-5.689 22.756-28.444 28.444-45.511 22.756-11.378-5.689-17.067-11.378-22.756-17.067-5.689-11.378-5.689-17.067 0-28.444l68.267-238.933c0-5.689 5.689-17.067 11.378-22.756s11.378-5.689 22.756-5.689h11.378c17.067 5.689 28.444 28.444 22.756 45.511l-68.267 244.622zM486.286 464.327v0c-5.689-5.689-11.378-17.067-11.378-28.444v-238.933c0-11.378 5.689-17.067 11.378-28.444 11.378-17.067 39.822-17.067 51.2 0 0 0 0 0 0 0 5.689 5.689 11.378 17.067 11.378 28.444v238.933c0 22.756-17.067 39.822-34.133 39.822-11.378 0-22.756-5.689-28.444-11.378v0zM759.353 470.016v0c-11.378 0-22.756 0-28.444-5.689s-17.067-11.378-17.067-22.756l-73.956-244.622c-5.689-17.067 5.689-39.822 22.756-45.511h11.378c5.689 0 17.067 0 22.756 5.689s11.378 11.378 11.378 17.067l73.956 238.933c5.689 11.378 0 22.756 0 28.444-5.689 22.756-11.378 28.444-22.756 28.444z" />
<glyph unicode="&#xe937;" glyph-name="shopping_cart_6" d="M706.162 165.717c-28.444 0-51.2-11.378-73.956-28.444-17.067-17.067-28.444-45.511-28.444-73.956 0-56.889 45.511-102.4 102.4-102.4 28.444 0 56.889 11.378 73.956 28.444s28.444 45.511 28.444 73.956c0 56.889-45.511 102.4-102.4 102.4v0 0zM740.295 63.317c0-11.378-5.689-17.067-11.378-22.756-11.378-11.378-34.133-11.378-45.511 0-5.689 5.689-11.378 17.067-11.378 22.756 0 11.378 5.689 17.067 11.378 22.756s17.067 11.378 22.756 11.378c17.067 0 34.133-17.067 34.133-34.133v0zM1019.051 740.295c0 5.689-5.689 5.689-11.378 5.689h-142.222l-51.2 159.289c0 5.689-11.378 11.378-17.067 11.378l-227.556-73.956-22.756 62.578c0 5.689-11.378 11.378-17.067 11.378l-227.556-73.956c-5.689 0-5.689-5.689-5.689-5.689 0-5.689 0-5.689 0-11.378l22.756-73.956h-91.022l-22.756 91.022c-5.689 28.444-22.756 51.2-45.511 68.267s-51.2 28.444-79.644 28.444h-68.267c-5.689 0-17.067-5.689-17.067-17.067v-45.511c0-5.689 5.689-17.067 17.067-17.067h68.267c11.378 0 22.756-5.689 34.133-11.378s17.067-17.067 22.756-28.444l108.089-432.356c-11.378-11.378-17.067-17.067-22.756-28.444-22.756-39.822-11.378-91.022 17.067-125.156 17.067-22.756 45.511-34.133 73.956-34.133h568.889c5.689 0 17.067 5.689 17.067 17.067v39.822c0 5.689-5.689 17.067-17.067 17.067v0h-568.889c-17.067 0-34.133 17.067-34.133 34.133 0 11.378 5.689 17.067 11.378 28.444 5.689 5.689 17.067 11.378 22.756 11.378h591.644c5.689 0 11.378 5.689 11.378 11.378l102.4 369.778c5.689 0 5.689 5.689 0 11.378zM501.362 825.628l28.444-79.644h-136.533l-17.067 39.822 125.156 39.822zM768.74 825.628l28.444-79.644h-136.533l-17.067 39.822 125.156 39.822zM933.717 672.028l-73.956-261.689h-551.822l-68.267 261.689h694.044zM381.895 165.717c-28.444 0-51.2-11.378-73.956-28.444-17.067-17.067-28.444-45.511-28.444-73.956 0-56.889 45.511-102.4 102.4-102.4 28.444 0 51.2 11.378 73.956 28.444 17.067 17.067 28.444 45.511 28.444 73.956 0 56.889-51.2 102.4-102.4 102.4zM416.028 63.317c0-11.378-5.689-17.067-11.378-22.756-11.378-11.378-34.133-11.378-45.511 0 0 0 0 0 0 0-5.689 5.689-11.378 17.067-11.378 22.756 0 11.378 5.689 17.067 11.378 22.756s17.067 11.378 22.756 11.378c11.378 0 17.067-5.689 22.756-11.378s11.378-17.067 11.378-22.756v0z" />
<glyph unicode="&#xe938;" glyph-name="shopping_cart_7" horiz-adv-x="1013" d="M583.111 681.529h45.511c11.378 0 17.067-5.689 17.067-17.067v-187.733c0-11.378-5.689-17.067-17.067-17.067h-45.511c-11.378 0-17.067 5.689-17.067 17.067v187.733c0 5.689 5.689 17.067 17.067 17.067zM992.711 960.284h-119.467c-5.689 0-17.067-5.689-17.067-11.378l-28.444-113.778h-807.822c-11.378 0-17.067-5.689-17.067-17.067 0 0 0-5.689 0-5.689l147.911-432.356c-22.756-5.689-39.822-17.067-56.889-34.133-17.067-22.756-28.444-51.2-28.444-85.333s11.378-62.578 34.133-91.022c22.756-22.756 56.889-39.822 85.333-39.822v0c-11.378-5.689-22.756-11.378-28.444-22.756-39.822-39.822-39.822-102.4 0-142.222s102.4-39.822 136.533 0c0 0 0 0 0 0 17.067 17.067 28.444 45.511 28.444 73.956s-11.378 51.2-28.444 68.267c-5.689 5.689-17.067 17.067-28.444 22.756h364.089c-11.378-5.689-22.756-11.378-28.444-22.756-39.822-39.822-39.822-102.4 0-142.222 34.133-39.822 96.711-39.822 136.533-5.689 0 0 0 0 5.689 5.689 17.067 17.067 28.444 45.511 28.444 73.956s-11.378 51.2-28.444 68.267c-5.689 5.689-17.067 17.067-28.444 22.756h39.822c11.378 0 17.067 5.689 17.067 17.067v39.822c0 11.378-5.689 17.067-17.067 17.067h-574.578c-11.378 0-22.756 5.689-34.133 11.378-11.378 11.378-11.378 22.756-11.378 34.133s5.689 28.444 11.378 34.133c5.689 11.378 22.756 11.378 34.133 11.378h580.267c5.689 0 17.067 5.689 17.067 11.378l147.911 568.889h73.956c11.378 0 17.067 5.689 17.067 17.067v39.822c-5.689 17.067-11.378 28.444-22.756 28.444 0 0 0 0 0 0zM662.756 55.751c5.689 11.378 22.756 11.378 28.444 0 0 0 0 0 0 0 11.378-11.378 11.378-28.444 0-34.133-5.689-11.378-22.756-11.378-28.444 0 0 0 0 0 0 0-5.689 5.689-5.689 11.378-5.689 17.067s0 11.378 5.689 17.067zM253.156 38.684c0-5.689 0-11.378-5.689-17.067-5.689-11.378-22.756-11.378-28.444 0 0 0 0 0 0 0-5.689 5.689-5.689 11.378-5.689 17.067s0 11.378 5.689 17.067c5.689 5.689 11.378 5.689 17.067 5.689s11.378 0 17.067-5.689c-5.689-5.689 0-11.378 0-17.067v0zM224.711 380.018l-125.156 375.467h711.111l-96.711-375.467h-489.244zM287.289 681.529h45.511c11.378 0 17.067-5.689 17.067-17.067v-187.733c0-11.378-5.689-17.067-17.067-17.067h-45.511c-11.378 0-17.067 5.689-17.067 17.067v187.733c0 5.689 5.689 17.067 17.067 17.067zM435.2 681.529h45.511c11.378 0 17.067-5.689 17.067-17.067v-187.733c0-11.378-5.689-17.067-17.067-17.067h-45.511c-11.378 0-17.067 5.689-17.067 17.067v187.733c0 5.689 5.689 17.067 17.067 17.067z" />
<glyph unicode="&#xe939;" glyph-name="shopping_cart_8" d="M984.462 543.687h-944.356c-22.756 0-39.822-17.067-39.822-39.822 0 0 0-5.689 0-5.689l85.333-477.867c5.689-22.756 22.756-39.822 51.2-39.822h750.933c22.756 0 45.511 17.067 51.2 39.822l85.333 477.867c5.689 22.756-11.378 45.511-34.133 45.511 0 0-5.689 0-5.689 0zM239.218 128.398c0-11.378-11.378-22.756-22.756-22.756s-22.756 11.378-22.756 22.756v267.378c0 11.378 11.378 22.756 22.756 22.756s22.756-11.378 22.756-22.756c0 0 0 0 0 0v-267.378zM387.129 128.398c0-11.378-11.378-22.756-22.756-22.756s-22.756 11.378-22.756 22.756v267.378c0 11.378 11.378 22.756 22.756 22.756s22.756-11.378 22.756-22.756c0 0 0 0 0 0v-267.378zM535.040 128.398c0-11.378-11.378-22.756-22.756-22.756s-22.756 11.378-22.756 22.756c0 0 0 0 0 0v267.378c0 11.378 11.378 22.756 22.756 22.756s22.756-11.378 22.756-22.756c0 0 0 0 0 0v-267.378zM682.951 128.398c0-11.378-11.378-22.756-22.756-22.756s-22.756 11.378-22.756 22.756v267.378c0 11.378 11.378 22.756 22.756 22.756s22.756-11.378 22.756-22.756c0 0 0 0 0 0v-267.378zM830.862 128.398c0-11.378-11.378-22.756-22.756-22.756s-22.756 11.378-22.756 22.756c0 0 0 0 0 0v267.378c0 11.378 11.378 22.756 22.756 22.756s22.756-11.378 22.756-22.756c0 0 0 0 0 0v-267.378zM182.329 759.865c5.689 51.2 51.2 85.333 96.711 85.333h85.333c11.378-22.756 34.133-39.822 56.889-39.822h170.667c22.756 0 45.511 17.067 56.889 39.822h85.333c51.2 0 91.022-39.822 96.711-85.333l22.756-170.667h45.511l-22.756 176.356c-11.378 73.956-73.956 125.156-142.222 125.156h-85.333c-11.378 22.756-34.133 39.822-56.889 39.822h-170.667c-22.756 0-45.511-17.067-56.889-39.822h-79.644c-73.956 0-136.533-56.889-142.222-125.156l-22.756-176.356h45.511l17.067 170.667z" />
<glyph unicode="&#xe93a;" glyph-name="shopping_cart_9" d="M955.733 595.911h-147.911l-130.844 216.178c11.378 34.133 0 73.956-34.133 85.333s-73.956 0-85.333-34.133c-11.378-34.133 0-73.956 34.133-85.333 5.689 0 11.378-5.689 17.067-5.689l102.4-170.667h-392.533l102.4 170.667c34.133 0 62.578 34.133 56.889 73.956-5.689 34.133-39.822 62.578-79.644 56.889-34.133-5.689-62.578-39.822-56.889-73.956 0-5.689 0-11.378 5.689-17.067l-130.844-216.178h-147.911c-34.133 0-68.267-28.444-68.267-68.267v0-28.444c0-39.822 34.133-68.267 68.267-68.267 0 0 0 0 0 0v0l56.889-324.267c11.378-51.2 51.2-85.333 102.4-85.333h574.578c51.2 0 91.022 34.133 102.4 85.333l56.889 324.267h-5.689c39.822 0 68.267 34.133 68.267 68.267v0 28.444c0 39.822-34.133 68.267-68.267 68.267 0 0 0 0 0 0zM329.956 118.044h-17.067c-17.067 0-34.133 11.378-39.822 34.133l-34.133 187.733c0 11.378 5.689 17.067 11.378 22.756 0 0 0 0 5.689 0h45.511c17.067 0 28.444-11.378 28.444-22.756l22.756-193.422c0-17.067-11.378-28.444-22.756-28.444 0 0 0 0 0 0zM546.133 146.489c0-17.067-11.378-28.444-28.444-28.444h-17.067c-17.067 0-28.444 11.378-28.444 28.444l-5.689 187.733c0 11.378 11.378 22.756 22.756 22.756 0 0 0 0 0 0h45.511c11.378 0 22.756-11.378 22.756-22.756 0 0 0 0 0 0l-11.378-187.733zM750.933 146.489c-5.689-17.067-17.067-34.133-39.822-34.133h-17.067c-11.378 0-22.756 11.378-22.756 22.756 0 0 0 0 0 0l22.756 193.422c0 17.067 11.378 22.756 28.444 22.756h45.511c11.378 0 17.067-5.689 17.067-17.067 0 0 0 0 0-5.689l-34.133-182.044zM859.022 493.511c0-22.756-17.067-39.822-39.822-39.822s-39.822 17.067-39.822 39.822c0 22.756 17.067 39.822 39.822 39.822s39.822-17.067 39.822-39.822c0 0 0 0 0 0v0zM204.8 533.333c22.756 0 39.822-17.067 39.822-39.822s-17.067-39.822-39.822-39.822-39.822 17.067-39.822 39.822c0 0 0 0 0 0 0 22.756 17.067 39.822 39.822 39.822 0 0 0 0 0 0v0z" />
<glyph unicode="&#xe93b;" glyph-name="shopping_cart_10" d="M1010.745 768c-11.378 17.067-28.444 22.756-51.2 22.756h-716.8l-11.378 56.889c-5.689 28.444-34.133 51.2-68.267 51.2h-125.156c-22.756 0-34.133-17.067-34.133-34.133 0-22.756 17.067-34.133 34.133-34.133h119.467l130.844-568.889c5.689-34.133 34.133-51.2 68.267-51.2h540.444c22.756 0 34.133 17.067 34.133 34.133 0 22.756-17.067 34.133-34.133 34.133h-540.444l-11.378 51.2 551.822 62.578c34.133 5.689 68.267 28.444 73.956 68.267l51.2 256c5.689 17.067 0 34.133-11.378 51.2zM447.545 716.8h119.467l5.689-290.133-85.333-11.378-39.822 301.511zM419.1 409.6l-85.333-11.378-73.956 318.578h119.467l39.822-307.2zM640.967 716.8h119.467l-17.067-273.067-96.711-11.378-5.689 284.444zM817.323 455.111l17.067 261.689h119.467l-51.2-244.622c0-5.689-5.689-5.689-11.378-11.378l-73.956-5.689zM413.412 153.6c-39.822 0-68.267-28.444-68.267-68.267s28.444-68.267 68.267-68.267c39.822 0 68.267 28.444 68.267 68.267s-34.133 68.267-68.267 68.267zM805.945 153.6c-39.822 0-68.267-28.444-68.267-68.267s28.444-68.267 68.267-68.267c39.822 0 68.267 28.444 68.267 68.267s-34.133 68.267-68.267 68.267v0z" />
<glyph unicode="&#xe93c;" glyph-name="shopping_cart_11" d="M209.381 647.572c-16.168 0-26.947 10.779-26.947 26.947s10.779 26.947 26.947 26.947h339.537c0 0 0 0 0 0 16.168 0 26.947-10.779 26.947-26.947s-10.779-26.947-26.947-26.947h-339.537c0 0 0 0 0 0zM721.381 205.635h-441.937c-10.779 0-26.947 10.779-26.947 21.558l-75.453 517.389c-5.389 26.947-26.947 48.505-59.284 48.505h-64.674v-53.895c0-16.168-10.779-26.947-26.947-26.947s-26.947 10.779-26.947 26.947v53.895c0 32.337 21.558 53.895 53.895 53.895h64.674c53.895 0 102.4-43.116 107.789-97.011l75.453-495.832h409.6l161.684 177.853v48.505c0 16.168 10.779 26.947 26.947 26.947s26.947-10.779 26.947-26.947v-48.505c0-5.389 0-10.779-5.389-16.168l-177.853-194.021c-10.779-10.779-16.168-16.168-21.558-16.168zM252.497-31.501c-53.895 0-97.011 43.116-97.011 97.011s43.116 97.011 97.011 97.011 97.011-43.116 97.011-97.011-43.116-97.011-97.011-97.011zM252.497 108.625c-21.558 0-43.116-21.558-43.116-43.116s21.558-43.116 43.116-43.116 43.116 21.558 43.116 43.116-21.558 43.116-43.116 43.116zM748.328-31.501c-53.895 0-97.011 43.116-97.011 97.011s43.116 97.011 97.011 97.011 97.011-43.116 97.011-97.011-48.505-97.011-97.011-97.011zM748.328 108.625c-21.558 0-43.116-21.558-43.116-43.116s21.558-43.116 43.116-43.116 43.116 21.558 43.116 43.116-21.558 43.116-43.116 43.116zM678.265 27.783h-172.463c-43.116 0-80.842 37.726-80.842 80.842v26.947c0 16.168 10.779 26.947 26.947 26.947s26.947-10.779 26.947-26.947v-26.947c0-16.168 10.779-26.947 26.947-26.947h172.463c16.168 0 26.947-10.779 26.947-26.947s-16.168-26.947-26.947-26.947zM392.623 313.425c-16.168 0-26.947 10.779-26.947 26.947l-16.168 237.137c0 16.168 10.779 26.947 26.947 26.947s26.947-10.779 26.947-26.947l16.168-237.137c0-16.168-10.779-26.947-26.947-26.947 0 0 0 0 0 0zM543.528 313.425c-16.168 0-26.947 10.779-26.947 26.947v204.8c0 16.168 10.779 26.947 26.947 26.947s26.947-10.779 26.947-26.947v-204.8c0-16.168-10.779-26.947-26.947-26.947zM699.823 351.151c-16.168 0-26.947 10.779-26.947 26.947v123.958c0 16.168 10.779 26.947 26.947 26.947s26.947-10.779 26.947-26.947v-123.958c0-16.168-10.779-26.947-26.947-26.947zM829.171 545.172c-80.842 0-156.295 48.505-183.242 129.347-16.168 43.116-16.168 91.621 0 134.737 5.389 16.168 21.558 21.558 32.337 16.168 16.168-5.389 21.558-21.558 16.168-32.337-10.779-32.337-10.779-64.674 0-97.011 26.947-75.453 107.789-113.179 177.853-86.232s113.179 107.789 86.232 177.853c-10.779 37.726-37.726 64.674-70.063 80.842s-70.063 16.168-107.789 5.389c-16.168-5.389-26.947 0-32.337 16.168s0 26.947 16.168 32.337c102.4 37.726 210.189-16.168 247.916-118.568s-16.168-210.189-118.568-247.916c-21.558-10.779-43.116-10.779-64.674-10.779zM823.781 663.741c-5.389 0-16.168 5.389-21.558 10.779l-37.726 37.726c-10.779 10.779-10.779 26.947 0 37.726s26.947 10.779 37.726 0l16.168-16.168 43.116 59.284c10.779 10.779 26.947 16.168 37.726 5.389s16.168-26.947 5.389-37.726l-64.674-86.232c0-5.389-10.779-5.389-16.168-10.779 0 0 0 0 0 0z" />
<glyph unicode="&#xe93d;" glyph-name="thank_you_message" d="M567.138-64c-15.754 0-31.508 10.503-36.759 26.256l-115.528 341.333-283.569 105.026c-15.754 10.503-26.256 21.005-26.256 36.759s10.503 31.508 26.256 42.010l283.569 105.026 110.277 341.333c5.251 15.754 21.005 26.256 42.010 26.256v0c15.754 0 31.508-10.503 36.759-26.256l110.277-341.333 283.569-105.026c15.754-5.251 26.256-21.005 26.256-36.759s-10.503-31.508-26.256-36.759l-283.569-105.026-110.277-346.585c-5.251-15.754-21.005-26.256-36.759-26.256zM257.313 445.374l199.549-73.518c10.503-5.251 21.005-10.503 21.005-26.256l84.021-246.81 84.021 246.81c5.251 10.503 10.503 21.005 21.005 26.256l199.549 73.518-199.549 73.518c-10.503 5.251-21.005 15.754-21.005 26.256l-84.021 246.81-78.769-241.559c-5.251-15.754-15.754-21.005-26.256-26.256l-199.549-78.769zM199.549-64c-21.005 0-42.010 15.754-42.010 42.010v63.015h-63.015c-21.005 0-42.010 15.754-42.010 42.010s15.754 36.759 42.010 36.759h63.015v63.015c0 26.256 15.754 42.010 42.010 42.010s42.010-15.754 42.010-42.010v-63.015h63.015c21.005 0 42.010-15.754 42.010-42.010s-15.754-42.010-42.010-42.010h-68.267v-63.015c0-21.005-15.754-36.759-36.759-36.759zM147.036 671.179c-26.256 0-42.010 15.754-42.010 36.759v68.267h-63.015c-26.256 0-42.010 15.754-42.010 36.759s15.754 42.010 42.010 42.010h63.015v63.015c0 26.256 15.754 42.010 42.010 42.010s42.010-15.754 42.010-42.010v-63.015h63.015c21.005 0 42.010-15.754 42.010-42.010s-21.005-36.759-42.010-36.759h-68.267v-63.015c0-26.256-15.754-42.010-36.759-42.010z" />
<glyph unicode="&#xe93e;" glyph-name="thank_you_order_confirm" d="M514.626-64c-283.569 0-514.626 231.056-514.626 509.374s231.056 514.626 514.626 514.626c283.569 0 514.626-231.056 514.626-514.626s-236.308-509.374-514.626-509.374zM514.626 881.231c-236.308 0-430.605-194.297-430.605-430.605s189.046-435.856 430.605-435.856c236.308 0 435.856 194.297 435.856 430.605s-199.549 435.856-435.856 435.856zM462.113 303.59c-10.503 0-21.005 5.251-26.256 10.503l-105.026 105.026c-15.754 15.754-15.754 42.010 0 57.764s42.010 15.754 57.764 0l78.769-78.769 183.795 183.795c15.754 15.754 42.010 15.754 57.764 0s15.754-42.010 0-57.764l-210.051-210.051c-21.005-5.251-31.508-10.503-36.759-10.503z" />
<glyph unicode="&#xe93f;" glyph-name="thankyou_address_details" horiz-adv-x="896" d="M448-61.44c-35.84 0-71.68 15.36-97.28 40.96l-215.040 215.040c-87.040 87.040-133.12 194.56-133.12 317.44s46.080 230.4 133.12 317.44 194.56 133.12 312.32 133.12v0c117.76 0 230.4-46.080 317.44-133.12s133.12-194.56 133.12-317.44c0-117.76-46.080-230.4-133.12-317.44l-215.040-215.040c-30.72-30.72-66.56-40.96-102.4-40.96zM448 880.64c-97.28 0-194.56-40.96-261.12-107.52-71.68-66.56-107.52-163.84-107.52-261.12s40.96-194.56 107.52-261.12l215.040-215.040c25.6-25.6 66.56-25.6 92.16 0l215.040 215.040c143.36 143.36 143.36 378.88 0 527.36-66.56 66.56-163.84 102.4-261.12 102.4zM448 322.56c-107.52 0-194.56 87.040-194.56 189.44 0 107.52 87.040 194.56 194.56 194.56s194.56-87.040 194.56-194.56c0-107.52-87.040-189.44-194.56-189.44zM448 629.76c-61.44 0-112.64-51.2-112.64-112.64s51.2-112.64 112.64-112.64 117.76 51.2 117.76 112.64c0 56.32-56.32 112.64-117.76 112.64z" />
<glyph unicode="&#xe940;" glyph-name="thankyou_order_details" horiz-adv-x="814" d="M672.164-64h-525.128c-78.769 0-147.036 63.015-147.036 147.036v630.154c0 78.769 63.015 141.785 147.036 141.785h73.518c15.754 63.015 73.518 105.026 136.533 105.026h105.026c68.267 0 120.779-42.010 136.533-105.026h73.518c78.769 0 147.036-63.015 147.036-147.036v-630.154c-5.251-78.769-68.267-141.785-147.036-141.785zM147.036 776.205c-36.759 0-63.015-31.508-63.015-63.015v-630.154c0-36.759 31.508-63.015 63.015-63.015h525.128c36.759 0 63.015 31.508 63.015 63.015v630.154c0 36.759-31.508 63.015-63.015 63.015h-73.518c-15.754-63.015-73.518-105.026-136.533-105.026h-105.026c-68.267 0-120.779 42.010-136.533 105.026h-73.518zM288.821 812.964c0-31.508 31.508-63.015 68.267-63.015h105.026c31.508 0 63.015 31.508 63.015 63.015s-31.508 68.267-63.015 68.267h-105.026c-36.759 0-68.267-31.508-68.267-68.267zM567.138 198.564h-157.538c-21.005 0-42.010 15.754-42.010 42.010s15.754 36.759 42.010 36.759h157.538c21.005 0 42.010-15.754 42.010-42.010s-21.005-36.759-42.010-36.759zM252.062 198.564c-21.005 0-42.010 15.754-42.010 42.010s15.754 36.759 42.010 36.759v0c21.005 0 42.010-15.754 42.010-42.010s-21.005-36.759-42.010-36.759zM567.138 408.615h-157.538c-26.256 0-42.010 15.754-42.010 36.759s15.754 42.010 42.010 42.010h157.538c21.005 0 42.010-15.754 42.010-42.010s-21.005-36.759-42.010-36.759zM252.062 408.615c-26.256 0-42.010 15.754-42.010 36.759s15.754 42.010 42.010 42.010v0c21.005 0 42.010-15.754 42.010-42.010s-21.005-36.759-42.010-36.759z" />
<glyph unicode="&#xe941;" glyph-name="upsell" d="M757.76 12.8c-20.48 0-40.96 15.36-40.96 40.96v517.12l-138.24-138.24c-15.36-15.36-40.96-15.36-56.32 0s-15.36 40.96 0 56.32l204.8 204.8c0 0 0 0 0 0s0 0 0 0 0 0 0 0v0c0 0 0 0 0 0s0 0 0 0 0 0 0 0v0c0 0 0 0 0 0v0c0 0 0 0 0 0v0c0 0 0 0 0 0s0 0 0 0 0 0 0 0v0c0 0 0 0 0 0s0 0 0 0 0 0 0 0v0c0 0 0 0 0 0s0 0 0 0 0 0 0 0 0 0 0 0 0 0 0 0 0 0 0 0v0c0 0 0 0 0 0s0 0 0 0 0 0 0 0 0 0 0 0v0c0 0 0 0 0 0v0c0 0 0 0 0 0v0c0 0 0 0 0 0v0c5.12 0 5.12 5.12 10.24 5.12 5.12 5.12 10.24 5.12 15.36 5.12 0 0 0 0 0 0v0c0 0 0 0 0 0v0c0 0 0 0 0 0v0c0 0 0 0 0 0v0c0 0 0 0 0 0 5.12 0 10.24 0 15.36-5.12 5.12 0 10.24-5.12 10.24-10.24 0 0 0 0 0 0v0c0 0 0 0 0 0l204.8-204.8c15.36-15.36 15.36-40.96 0-56.32s-40.96-15.36-56.32 0l-138.24 138.24v-522.24c5.12-15.36-10.24-30.72-30.72-30.72zM348.16 422.4h-307.2c-25.6 0-40.96 15.36-40.96 35.84s15.36 40.96 40.96 40.96h307.2c20.48 0 40.96-15.36 40.96-40.96s-20.48-35.84-40.96-35.84zM501.76 627.2h-460.8c-25.6 0-40.96 15.36-40.96 35.84s15.36 40.96 40.96 40.96h460.8c20.48 0 40.96-15.36 40.96-40.96s-20.48-35.84-40.96-35.84zM706.56 832h-665.6c-25.6 0-40.96 15.36-40.96 35.84s15.36 40.96 40.96 40.96h665.6c20.48 0 40.96-15.36 40.96-40.96s-20.48-35.84-40.96-35.84z" />
<glyph unicode="&#xe942;" glyph-name="shopengine_logo" horiz-adv-x="1178" d="M639.853-6.26c-17.675 21.211-23.567 48.313-20.032 75.415 1.178 4.713 2.357 9.427 3.535 15.319 2.357 7.070 4.713 14.14 9.427 21.211-7.070 1.178-12.962 3.535-18.854 5.892v-2.357c0-10.605-5.892-18.854-12.962-24.746-5.892-3.535-11.784-5.892-18.854-5.892h-16.497c-17.675 0-31.816 14.14-31.816 30.638l-1.178 25.924-7.070 188.539c0 12.962 9.427 24.746 23.567 25.924 0 0 1.178 0 1.178 0h49.491c11.784 0 21.211-8.249 23.567-20.032 1.178 0 2.357 1.178 3.535 1.178-14.14 28.281-15.319 61.275-1.178 89.556 1.178 2.357 2.357 4.713 3.535 7.070 2.357 3.535 3.535 7.070 5.892 9.427 10.605 17.675 24.746 29.459 37.708 38.886 11.784 9.427 24.746 16.497 37.708 20.032 25.924 7.070 51.848 4.713 74.237-7.070 8.249 27.102 25.924 48.313 51.848 61.275 8.249 4.713 16.497 5.892 21.211 7.070l10.605 3.535 22.389 1.178h11.784l22.389-1.178 10.605-3.535c4.713-1.178 12.962-3.535 21.211-7.070 25.924-12.962 43.6-34.173 51.848-61.275 22.389 11.784 49.491 15.319 74.237 7.070 12.962-3.535 25.924-10.605 37.708-20.032 4.713-3.535 10.605-8.249 15.319-14.14 8.249 12.962 12.962 27.102 12.962 43.6v30.638c0 43.6-35.351 78.951-78.951 78.951 0 0 0 0 0 0h-166.15l-144.939 241.565c15.319 38.886-2.357 82.486-41.243 97.804s-82.486-2.357-97.804-41.243c-15.319-38.886 2.357-82.486 41.243-97.804 5.892-2.357 11.784-3.535 17.675-4.713l113.123-193.252h-434.817l113.123 193.252c41.243 5.892 69.524 43.6 63.632 84.842s-43.6 69.524-84.842 63.632c-41.243-5.892-69.524-43.6-63.632-84.842 1.178-5.892 2.357-11.784 4.713-17.675l-144.939-239.208h-166.15c-43.6 0-78.951-35.351-78.951-78.951v-30.638c0-43.6 35.351-78.951 78.951-78.951h-3.535l63.632-366.472c9.427-55.383 57.74-95.448 113.123-95.448h414.785c-9.427 7.070-18.854 16.497-27.102 27.102zM230.96 458.016c-23.567 0-43.6 18.854-43.6 43.6 0 0 0 0 0 0 0 23.567 18.854 43.6 43.6 43.6 0 0 0 0 0 0 23.567 0 43.6-18.854 43.6-43.6-1.178-23.567-20.032-43.6-43.6-43.6zM372.364 77.404c-1.178 0-2.357 0-3.535 0h-17.675c-21.211 0-38.886 14.14-43.6 35.351l-43.6 213.284c0 2.357 0 4.713 0 7.070 1.178 8.249 7.070 14.14 15.319 16.497 1.178 0 2.357 0 3.535 0h53.026c16.497 0 30.638-11.784 31.816-28.281l8.249-70.702 17.675-144.939c2.357-14.14-7.070-27.102-21.211-28.281zM1177.188 236.483c-1.178 9.427-4.713 18.854-11.784 25.924s-16.497 10.605-27.102 11.784c-10.605 0-22.389 0-32.994 0-14.14 0-25.924 9.427-31.816 21.211 0 2.357-1.178 4.713-1.178 7.070 0 9.427 3.535 17.675 10.605 24.746s15.319 15.319 22.389 22.389c10.605 11.784 14.14 28.281 7.070 43.6-1.178 3.535-3.535 7.070-5.892 9.427 0 0 0 0 0 0-5.892 10.605-15.319 17.675-24.746 24.746-5.892 4.713-11.784 7.070-17.675 9.427-12.962 3.535-23.567 1.178-34.173-7.070-4.713-3.535-9.427-8.249-12.962-12.962-5.892-4.713-10.605-10.605-16.497-15.319-10.605-8.249-21.211-8.249-31.816-3.535-8.249 4.713-14.14 11.784-16.497 20.032-1.178 4.713-1.178 9.427-1.178 14.14 0 8.249 0 17.675 0 25.924-1.178 15.319-7.070 28.281-22.389 35.351-4.713 2.357-9.427 2.357-12.962 3.535 0 0-1.178 0-1.178 0-3.535 0-5.892 0-9.427 0-1.178 0-2.357 0-3.535 0s-3.535 0-4.713 0c-1.178 0-3.535 0-4.713 0s-2.357 0-3.535 0c-3.535 0-5.892 0-9.427 0 0 0-1.178 0-1.178 0-4.713-1.178-9.427-2.357-12.962-3.535-14.14-7.070-21.211-20.032-22.389-35.351 0-8.249 0-17.675 0-25.924 0-4.713 0-9.427-1.178-14.14-2.357-9.427-8.249-16.497-16.497-20.032-12.962-3.535-23.567-3.535-34.173 4.713-5.892 4.713-10.605 10.605-16.497 15.319-4.713 4.713-8.249 9.427-12.962 12.962-10.605 8.249-21.211 10.605-34.173 7.070-7.070-2.357-12.962-4.713-17.675-9.427-9.427-7.070-17.675-15.319-24.746-24.746 0 0 0 0 0 0-2.357-3.535-4.713-5.892-5.892-9.427-7.070-15.319-4.713-31.816 7.070-43.6 7.070-8.249 15.319-15.319 22.389-22.389s10.605-15.319 10.605-24.746c0-2.357 0-4.713-1.178-7.070-4.713-12.962-17.675-21.211-31.816-21.211-10.605 0-22.389 0-32.994 0s-20.032-3.535-27.102-11.784c-7.070-7.070-10.605-16.497-11.784-25.924 0-3.535-1.178-8.249-1.178-11.784 0-1.178 0-2.357 0-3.535 0-4.713 0-10.605 1.178-15.319 0-3.535 1.178-7.070 2.357-9.427 0 0 0-1.178 0-1.178 1.178-9.427 7.070-17.675 15.319-23.567 7.070-4.713 14.14-7.070 22.389-7.070 11.784 0 23.567-1.178 35.351-1.178 11.784-1.178 21.211-5.892 27.102-16.497 7.070-10.605 8.249-28.281-2.357-40.064-7.070-7.070-14.14-15.319-21.211-22.389-4.713-4.713-8.249-10.605-10.605-16.497-3.535-11.784-3.535-23.567 4.713-34.173 9.427-10.605 18.854-21.211 30.638-29.459 3.535-3.535 8.249-5.892 12.962-5.892 11.784-2.357 23.567 1.178 32.994 9.427 8.249 8.249 16.497 16.497 24.746 24.746 3.535 3.535 7.070 7.070 12.962 8.249 7.070 2.357 14.14 2.357 21.211 0 0 0 1.178 0 1.178-1.178 8.249-5.892 14.14-14.14 15.319-23.567 1.178-3.535 1.178-8.249 1.178-11.784 0-9.427 0-17.675 0-27.102 0-16.497 9.427-28.281 24.746-34.173 10.605-3.535 20.032-5.892 31.816-5.892 10.605 0 21.211 2.357 31.816 5.892 15.319 5.892 24.746 17.675 24.746 34.173 0 9.427 0 17.675 0 27.102 0 3.535 0 8.249 1.178 11.784 2.357 9.427 7.070 17.675 15.319 23.567 0 0 1.178 0 1.178 1.178 2.357 1.178 3.535 1.178 5.892 1.178l-31.816 29.459c-15.319-4.713-30.638-7.070-47.135-7.070-86.021 0-155.544 69.524-155.544 155.544s69.524 155.544 155.544 155.544c86.021 0 155.544-69.524 155.544-155.544 0-14.14-2.357-27.102-4.713-38.886l31.816-29.459c5.892 8.249 14.14 11.784 24.746 12.962 11.784 1.178 23.567 1.178 35.351 1.178 8.249 0 15.319 2.357 22.389 7.070 8.249 5.892 12.962 14.14 15.319 23.567 0 0 0 1.178 0 1.178 1.178 3.535 1.178 5.892 2.357 9.427 0 4.713 1.178 10.605 1.178 15.319 0 1.178 0 2.357 0 3.535-3.535 1.178-4.713 5.892-4.713 9.427zM1114.734 62.085c-28.281 27.102-56.562 54.205-83.664 81.307-7.070 7.070-14.14 14.14-21.211 21.211-1.178 1.178-1.178 1.178-2.357 2.357-2.357 3.535-2.357 7.070-1.178 10.605s1.178 5.892 2.357 9.427c5.892 22.389 7.070 44.778 0 67.167-8.249 23.567-22.389 43.6-42.421 57.74-18.854 14.14-40.064 22.389-63.632 21.211-11.784 0-22.389-2.357-34.173-5.892 1.178-1.178 1.178-2.357 2.357-3.535 14.14-14.14 28.281-28.281 43.6-42.421 3.535-3.535 7.070-8.249 9.427-12.962 8.249-15.319 10.605-31.816 3.535-48.313-4.713-9.427-10.605-17.675-18.854-23.567 0 0 0-1.178-1.178-1.178-12.962-11.784-28.281-15.319-44.778-12.962-10.605 1.178-20.032 5.892-27.102 12.962-9.427 9.427-18.854 18.854-29.459 28.281-5.892 4.713-10.605 10.605-16.497 16.497-1.178 1.178-2.357 1.178-2.357 1.178-2.357-1.178-3.535-2.357-4.713-4.713 0-5.892-1.178-12.962-1.178-18.854 0-15.319 1.178-30.638 7.070-44.778 9.427-24.746 27.102-43.6 48.313-57.74 24.746-16.497 53.026-21.211 82.486-14.14 7.070 1.178 14.14 3.535 21.211 5.892s11.784 1.178 17.675-3.535c7.070-5.892 12.962-11.784 20.032-18.854 21.211-20.032 42.421-41.243 63.632-61.275 8.249-8.249 16.497-16.497 25.924-23.567 5.892-4.713 11.784-8.249 18.854-8.249s15.319 0 21.211 4.713c5.892 4.713 11.784 9.427 16.497 15.319 5.892 9.427 7.070 20.032 3.535 30.638-3.535 9.427-8.249 15.319-12.962 20.032zM1088.81 13.772c-10.605 0-20.032 8.249-20.032 18.854 0 11.784 8.249 20.032 20.032 20.032 9.427 0 20.032-5.892 20.032-18.854 0-10.605-8.249-20.032-20.032-20.032z" />
<glyph unicode="&#xe943;" glyph-name="grid-1" d="M409.6 499.2h-358.4c-28.277 0-51.2 22.923-51.2 51.2v0 358.4c0 28.277 22.923 51.2 51.2 51.2v0h358.4c28.277 0 51.2-22.923 51.2-51.2v0-358.4c0-28.277-22.923-51.2-51.2-51.2v0zM102.4 601.6h256v256h-256zM972.8 499.2h-358.4c-28.277 0-51.2 22.923-51.2 51.2v0 358.4c0 28.277 22.923 51.2 51.2 51.2v0h358.4c28.277 0 51.2-22.923 51.2-51.2v0-358.4c0-28.277-22.923-51.2-51.2-51.2v0zM665.6 601.6h256v256h-256zM972.8-64h-358.4c-28.277 0-51.2 22.923-51.2 51.2v0 358.4c0 28.277 22.923 51.2 51.2 51.2v0h358.4c28.277 0 51.2-22.923 51.2-51.2v0-358.4c0-28.277-22.923-51.2-51.2-51.2v0zM665.6 38.4h256v256h-256zM409.6-64h-358.4c-28.277 0-51.2 22.923-51.2 51.2v0 358.4c0 28.277 22.923 51.2 51.2 51.2h358.4c28.277 0 51.2-22.923 51.2-51.2v0-358.4c0-28.277-22.923-51.2-51.2-51.2v0zM102.4 38.4h256v256h-256z" />
<glyph unicode="&#xe944;" glyph-name="grid-2" horiz-adv-x="1463" d="M1388.977 813.749h-950.631c-40.386 0-73.125 32.739-73.125 73.125s32.739 73.125 73.125 73.125h950.631c40.386 0 73.125-32.739 73.125-73.125s-32.739-73.125-73.125-73.125v0zM1388.977 374.996h-950.631c-40.386 0-73.125 32.739-73.125 73.125s32.739 73.125 73.125 73.125h950.631c40.386 0 73.125-32.739 73.125-73.125s-32.739-73.125-73.125-73.125v0zM1388.977-63.756h-950.631c-40.386 0-73.125 32.739-73.125 73.125s32.739 73.125 73.125 73.125h950.631c40.386 0 73.125-32.739 73.125-73.125s-32.739-73.125-73.125-73.125v0zM73.45 813.749c-0.109-0.001-0.237-0.001-0.366-0.001-40.387 0-73.126 32.74-73.126 73.126 0 40.258 32.532 72.918 72.741 73.125h0.67c40.386 0 73.125-32.739 73.125-73.125s-32.739-73.125-73.125-73.125v0zM73.45 374.996c-0.109-0.001-0.237-0.001-0.366-0.001-40.387 0-73.126 32.74-73.126 73.126 0 40.258 32.532 72.918 72.741 73.125h0.67c40.386 0 73.125-32.739 73.125-73.125s-32.739-73.125-73.125-73.125v0zM73.45-63.756c-0.109-0.001-0.237-0.001-0.366-0.001-40.387 0-73.126 32.74-73.126 73.126 0 40.258 32.532 72.918 72.741 73.125h0.67c40.386 0 73.125-32.739 73.125-73.125s-32.739-73.125-73.125-73.125v0z" />
<glyph unicode="&#xe945;" glyph-name="grid-3" d="M870.4-64h-716.8c-84.831 0-153.6 68.769-153.6 153.6v0 716.8c0 84.831 68.769 153.6 153.6 153.6v0h716.8c84.831 0 153.6-68.769 153.6-153.6v0-716.8c0-84.831-68.769-153.6-153.6-153.6v0zM563.2 38.4h307.2c28.277 0 51.2 22.923 51.2 51.2v0 716.8c0 28.277-22.923 51.2-51.2 51.2v0h-307.2zM153.6 857.6c-28.277 0-51.2-22.923-51.2-51.2v0-716.8c0-28.277 22.923-51.2 51.2-51.2v0h307.2v819.2z" />
<glyph unicode="&#xe946;" glyph-name="qr_code" d="M128 468.667h342v342h-342v-342zM214 724.667h170v-170h-170v170zM128 42.667h342v342h-342v-342zM214 298.667h170v-170h-170v170zM554 810.667v-342h342v342h-342zM810 554.667h-170v170h170v-170zM810 128.667h86v-86h-86v86zM554 384.667h86v-86h-86v86zM640 298.667h86v-86h-86v86zM554 212.667h86v-84h-86v84zM640 128.667h86v-86h-86v86zM726 212.667h84v-84h-84v84zM726 384.667h84v-86h-84v86zM810 298.667h86v-86h-86v86z" />
<glyph unicode="&#xe953;" glyph-name="direct_checkout" horiz-adv-x="1035" d="M501.443 236.866l-58.062-58.062c-7.402-7.442-11.978-17.702-11.978-29.031s4.576-21.589 11.979-29.033l-0.002 0.002c6.878-6.477 16.17-10.457 26.392-10.457s19.514 3.98 26.411 10.475l-0.020-0.018 58.062 58.062c7.402 7.442 11.978 17.702 11.978 29.031s-4.576 21.589-11.979 29.033l0.002-0.002c-6.505 7.27-15.917 11.824-26.392 11.824s-19.886-4.554-26.362-11.791l-0.030-0.034zM686.186 421.608l-116.124-116.124c-7.402-7.442-11.978-17.702-11.978-29.031s4.576-21.589 11.979-29.033l-0.002 0.002c6.826-6.595 16.134-10.658 26.392-10.658s19.566 4.064 26.403 10.669l-0.011-0.010 116.124 116.124c7.402 7.442 11.978 17.702 11.978 29.031s-4.576 21.589-11.979 29.033l0.002-0.002c-7.014 6.151-16.265 9.904-26.392 9.904s-19.378-3.753-26.438-9.943l0.046 0.039zM944.825 643.299l-232.247 232.247c-36.873 46.224-90.766 77.521-152.047 84.361l-1.025 0.093c-63.135-7.926-117.246-41.192-152.642-89.122l-0.43-0.61-316.701-316.701c-47.613-36.631-80.526-90.332-89.578-151.797l-0.154-1.275c9.328-61.625 40.010-114.794 84.128-152.798l0.326-0.274 21.113-10.557 216.412-216.412c36.836-46.269 90.749-77.582 152.056-84.362l1.016-0.091c47.505 0 95.010 31.67 153.072 89.732l316.701 316.701c47.613 36.631 80.526 90.332 89.578 151.797l0.154 1.275c0 52.784-42.227 100.289-89.732 147.794zM84.454 405.773c0 21.113 21.113 52.784 63.34 100.289l316.701 316.701c42.227 42.227 68.619 63.34 100.289 63.34s47.505-15.835 84.454-52.784l-512-512c-36.948 36.948-58.062 63.34-52.784 84.454zM886.763 389.938l-316.701-316.701c-84.454-84.454-110.845-84.454-195.299 0l-190.021 190.021 512 512 190.021-190.021q63.34-63.34 63.34-95.010c0-21.113-15.835-52.784-63.34-100.289z" />
<glyph unicode="&#xe958;" glyph-name="mobile" d="M736 960h-448c-52.8 0-96-43.2-96-96v-832c0-52.8 43.2-96 96-96h448c52.8 0 96 43.2 96 96v832c0 52.8-43.2 96-96 96zM384 912h256v-32h-256v32zM512 0c-35.346 0-64 28.654-64 64s28.654 64 64 64 64-28.654 64-64-28.654-64-64-64zM768 192h-512v640h512v-640z" />
<glyph unicode="" glyph-name="mobile" d="M736 960h-448c-52.8 0-96-43.2-96-96v-832c0-52.8 43.2-96 96-96h448c52.8 0 96 43.2 96 96v832c0 52.8-43.2 96-96 96zM384 912h256v-32h-256v32zM512 0c-35.346 0-64 28.654-64 64s28.654 64 64 64 64-28.654 64-64-28.654-64-64-64zM768 192h-512v640h512v-640z" />
<glyph unicode="mobile" glyph-name="mobile" d="M736 960h-448c-52.8 0-96-43.2-96-96v-832c0-52.8 43.2-96 96-96h448c52.8 0 96 43.2 96 96v832c0 52.8-43.2 96-96 96zM384 912h256v-32h-256v32zM512 0c-35.346 0-64 28.654-64 64s28.654 64 64 64 64-28.654 64-64-28.654-64-64-64zM768 192h-512v640h512v-640z" />
<glyph unicode="cell-phone" glyph-name="mobile" d="M736 960h-448c-52.8 0-96-43.2-96-96v-832c0-52.8 43.2-96 96-96h448c52.8 0 96 43.2 96 96v832c0 52.8-43.2 96-96 96zM384 912h256v-32h-256v32zM512 0c-35.346 0-64 28.654-64 64s28.654 64 64 64 64-28.654 64-64-28.654-64-64-64zM768 192h-512v640h512v-640z" />
</font>
</defs>
</svg>
